This file was generated by Ched 2.7.0.0.
#TITLE ""
#ARTIST ""
#DESIGNER ""
#DIFFICULTY 0
#PLAYLEVEL
#SONGID ""
#WAVE ""
#WAVEOFFSET 0
#JACKET ""
#REQUEST "ticks_per_beat 480"
#00002: 4
#BPM01: 146
#00008: 01
#TIL00: ""
#VOLUME: ""
#HISPEED 00
#MEASUREHS 00
#00318:0014
#00312:14
#00414:14
#0041a:0014
#00514:14
#0071a:14
#00714:0014
#00710:41
#0081a:14
#00814:0014
#00918:14
#00912:0014
#01118:0014
#01112:14
#01212:14
#01218:0014
#01314:14
#0131a:0014
#0191a:14
#01912:0014
#02018:14
#02014:0014
#0211a:1414
#02212:1414
#02518:00140000
#02514:0014
#0251a:00000014
#02512:24
#02510:41
#02612:14
#02714:00140000
#02718:0014
#02712:00000014
#0271a:14
#0281a:14
#02912:1414
#02918:00140014
#03014:1414
#0301a:00140014
#03212:14
#03214:00140000
#03314:00140000
#03318:0014
#03312:00000014
#0331a:24
#03310:41
#0341a:14
#03414:00140000
#03418:0014
#03412:00000014
#03518:0000001400000000
#0351a:0000000000000014
#03618:00000014000000000000000000000000
#04413:14
#04419:14
#04614:0014
#04818:0014
#04912:1414
#0501a:1414
#05818:00140000
#05814:0014
#0581a:00000014
#05812:24
#05912:14000014
#0591a:00140000
#05916:0014
#0611a:14
#06118:00140000
#06218:00140000
#06214:0014
#0621a:00000014
#06212:24
#06312:14
#06318:00140000
#06314:0014
#0631a:00000014
#06414:0000001400000000
#06412:0000000000000014
#06514:00000014000000000000000000000000
#07414:00000014
#07312:0000000000000014
#0451f:11
#03112:24
#03712:26
#03714:0026
#03816:26
#03818:0026
#0401a:00240000
#0541a:24
#05414:24
#0541f:21
#0561a:24
#05612:0024
#05610:41
#05718:24
#0601a:24
#06618:26
#06616:0026
#06714:26
#06712:0026
#06912:00240000
#01510:41
#07010:41
#03912:5454
#03913:0054005400540000
#03914:0000540000005454
#0681a:5454
#06819:0054005400540000
#06818:0000540000005454
#07512:00530000
#0025a:00140000
#00554:54
#0105a:0014
#01452:0014
#01658:0014
#01854:0014
#0245a:00140000
#02652:54
#0285a:64
#03252:54
#03254:00240000
#0355a:0000000000000054
#03558:0000006400000000
#03658:00000024000000000000000000000000
#0405a:00540000
#05252:00140000
#0565a:14
#05652:0014
#05758:54
#05454:54
#0545a:54
#0615a:64
#06158:00240000
#06454:0000005400000000
#06452:0000000000000064
#06554:00000024000000000000000000000000
#06952:00640000
#04252:0000000000000014
#07454:00000064
#07352:0000000000000064
#0013a0:14
#001380:0034
#0023a0:34240000
#005340:14
#006320:3424
#0103a0:1424
#014320:1424
#0153a0:14000034000034000000000000000000
#016380:3424
#017320:14000034000034000000000000000000
#018340:3424
#023380:14
#0243a0:34240000
#026320:14
#026340:0024
#0283a0:14
#028380:0024
#031320:14000000000034000000340000340000
#032320:3424
#032340:00540000
#035380:1400003400000000
#0353a0:0000000000000034
#036380:00000054000000000000000000000000
#0363a0:0024
#0403a0:00140000
#040380:00000024
#041320:14
#041330:0000003400000000
#041340:00000034
#042330:0034000000000000
#042320:0000000034000024
#045320:14
#046340:24
#0473a0:14
#048380:24
#051340:14
#052320:34240000
#0543a0:14
#055380:24
#054341:14
#055321:24
#057381:14
#0573a1:0024
#0603a1:14000000000034000000340000340000
#0613a1:3424
#061381:00540000
#064341:1400003400000000
#064321:0000000000000034
#065341:00000054000000000000000000000000
#065321:0024
#069321:00140000
#069341:00000024
#0703a1:14000034
#070381:0000003400000000
#071381:0034000000000000
#0713a1:0024
#071341:0000000000000014
#072321:00340000
#072341:0000000000340000
#073321:3400000000003434
#073341:0000003400000000
#074341:00000034
#075321:00230000
#039920:1454
#039930:0054005400540000
#039940:0000540000005424
#0689a0:1454
#068990:0054005400540000
#068980:0000540000005424
