This file was generated by Ched 2.7.0.0.
#TITLE ""
#ARTIST ""
#DESIGNER ""
#DIFFICULTY 0
#PLAYLEVEL
#SONGID ""
#WAVE ""
#WAVEOFFSET 0
#JACKET ""
#REQUEST "ticks_per_beat 480"
#00002: 4
#BPM01: 192
#00008: 01
#TIL00: ""
#VOLUME: ""
#HISPEED 00
#MEASUREHS 00
#01012:0000001300000013
#0101b:0013
#01018:0000000000130000
#01015:00000013
#01013:5a
#01112:0014000014000000
#0111a:0000001400000000
#01118:26
#01110:41
#01218:0000130000001313
#01212:0014
#01215:13
#01618:0000130000001313
#01615:13
#01612:0014
#01716:00000000000000140000000014000000
#0171a:0014000000000014
#01712:0000000000000014
#01714:14
#02818:0012000000120000
#02816:00000012
#0281a:0000000000000012
#02812:0012000000000000
#02914:1212
#0291c:0012000000000000
#02912:00120000
#02916:0000000000000012
#0291a:0000001200000000
#02918:000000000000000000000000000000120012001200000000
#02917:000000000000000014141400
#03018:00130013
#0301b:0013
#03015:00230023
#03012:0023
#0311b:1313
#03112:2313
#03118:00130000
#03115:00130000
#03113:0000003300000000
#0311a:0000003300000000
#03218:00000013
#0331b:13131313
#03315:0000130000000013
#0341b:0013000000000000
#03418:00130000
#03415:0000001300000000
#03516:00000013
#03518:0000001313000000
#03510:41
#0361b:0000001300000000
#03617:00000013
#03615:0013
#03718:0000001300130000
#03715:0000000013000013
#03815:0000130000130013
#03818:0013000000000013
#03915:00000013
#03918:0000000000000013
#04015:00130013
#0401b:0000001300000000
#04018:0000000000000013
#04115:0000001300001300
#04118:0013
#0411b:0013000000000000
#0421b:1323
#04215:0013000000002300
#04218:00130000
#04212:0023
#04312:00141414
#04318:0000001300000013
#04412:14141414
#04418:0000001300000013
#0451a:14141414
#04515:1300001300130013
#04510:41
#0461a:14140000
#0461b:0013
#04615:0000001300001300
#04618:0000000000130000
#04612:0033000000000013
#04613:33
#04715:00130000
#04712:0014
#0471b:0000000013000013
#04718:23000013
#0471f:11
#04815:23130013
#0481a:0014
#04812:0000000013000013
#04818:0013000000000000
#04915:00130000
#04912:0014
#0491b:0000000013000013
#04918:23000013
#05015:2300130000130013
#05012:0013
#05018:0013000000001300
#0501b:0013
#05415:0000000000000000000000000000000000120000000000000000000000000000
#05419:0000000000000000000000000000000000120000000000000000000000000000
#05818:0013
#05815:0013
#05912:0000160000130000
#05918:2600002600000013
#0591f:21
#0601b:00130000
#06016:0013001300000000
#06017:00000013
#06012:0000000000000013
#06010:41
#06117:13
#06116:0000131300000000
#06217:00130013
#06212:00130013
#0621a:0024
#06215:0024
#06318:00160000
#06315:0000000000000013
#0631b:0000000000130000
#06312:2600002600000000
#06412:00130000
#06417:0013001300000000
#06416:00000013
#0641b:0000000000000013
#06612:0000140000000024
#06616:0000001400000000
#0661a:0024
#06614:0000000000240000
#06618:00000024
#06812:0014000000002400
#06816:0000140000000024
#0681a:0000002400000000
#06814:0024
#06818:0000000000240000
#07015:00000013
#07018:0000000000000013
#07016:00000014000000000000000000000000
#0701b:00000013000000000000000000000000
#07115:1300000000000013
#07118:00130013
#07112:0000001300000000
#07215:0000130000130013
#07218:13000013
#0721b:0000001300000000
#07318:13
#07317:00000014
#07312:00000013
#0741b:1313
#07417:00140014
#07415:1414
#07412:00130000
#07712:2413
#07716:00000014
#0771a:24
#08315:0013000000000000
#08318:0013000000000000
#08412:00130000000000000000000000000000
#0841b:00130000000000000000000000000000
#0131a:0014000014000000
#01312:0000001400000000
#01314:24
#02618:0000000000120000
#02614:00000012
#0261a:0000000000000000000000000000000000000000000000000000001200000000
#02612:0012
#02716:1200120000000012
#0271c:0012000000000000
#0271a:0000001200000000
#02718:00000012
#07615:00130000000000000000000000000000
#07618:00130000000000000000000000000000
#07512:0014000000000000
#0751a:0014000000000000
#07510:41
#08217:1414
#08215:00140000
#08212:2424
#0821a:00240024
#0551b:00131313
#05513:00155555
#05512:0000005500550055
#0561b:13131313
#05613:55555555
#05612:0055005500550055
#0671a:0000140000000024
#06716:0000001400000000
#06712:0024
#06718:0000000000240000
#06714:00000024
#06512:14000014
#06518:0014000000000000
#06514:00140000
#0651a:0000001400000014
#06516:00000000000000000014000000000000
#07916:0014000000001400
#07912:0014000000000000
#0781a:14
#07818:00140000
#07816:0014
#07812:13131313
#08116:0014000000000000
#0811a:0014000000000000
#08012:14
#08014:00140000
#08016:0014
#0801b:13131313
#0141a:0014
#01418:23
#01415:0000230000002323
#01512:0024000014000000
#01518:24
#0151a:0000002400000000
#01812:0016000016000000
#01818:0000260000260000
#00118:0012
#00218:0012
#00316:0012
#00416:0012
#06915:0000141400000000
#06912:0000000000001414
#0691a:0000001400000000
#06917:0000000000000013
#05718:24242424
#05714:0024002400240000
#0571a:0000000000000024
#05712:0000000000000024
#02310:41
#0891c:00000052
#08912:00000052
#09012:00000000007200000000000000000000
#0901c:00000000007200000000000000000000
#01158:16
#01152:0054000014000000
#01756:00000000000000240000000000000000
#0175a:0054000000000000
#03152:5323
#0315b:5323
#03158:00530000
#03155:00630000
#03355:0000630000000013
#03656:0013000000000000
#0365b:0013000000000000
#03655:0063
#03558:0053
#0355b:13
#03757:0013000000000000
#03755:0000000000000063
#03758:0000000000530000
#03752:0013000000000000
#03855:0000000000000063
#03858:0000000000000053
#03958:0000000000000053
#0405b:0000005300000000
#04058:0000000000000053
#04355:13
#04358:0000000000000053
#04555:5300000000000053
#04752:0014
#0485a:0014
#04952:0014
#05459:0000000000000000000000000000000000520000000000000000000000000000
#05455:0000000000000000000000000000000000520000000000000000000000000000
#05552:12
#0555c:12
#06056:0000005300000000
#05958:1600001600000053
#05952:0000000000530000
#06156:0000006300000000
#06157:5300000000000013
#06152:0000000000000013
#06355:0000000000000063
#0635b:0000000000630000
#06352:1600001600000000
#06457:0000006300000000
#08355:0053000000000000
#08358:0063000000000000
#08452:00230000000000000000000000000000
#0845b:00230000000000000000000000000000
#01252:0014
#01255:53
#01258:00630000
#0135a:0064000014000000
#01552:0054000014000000
#01458:53
#01455:00630000
#0145a:0014
#01655:53
#01658:00630000
#01652:0014
#02957:000000000000000054545400
#02958:000000000000000000000000000000520052005200000000
#07155:53
#07152:0000001300000000
#07258:63
#0725b:0000001300000000
#07255:0000000000000053
#07352:0013
#0735b:0013
#07358:53
#07655:00230000000000000000000000000000
#07658:00230000000000000000000000000000
#07552:0054000000000000
#0755a:0064000000000000
#08558:12
#08556:12
#07752:14
#0775a:14
#0415b:0023000000000000
#04155:00000053
#05855:0023
#06257:00000053
#07956:0054000000000000
#07952:0054000000000000
#08156:0064000014000000
#0815a:0064000000000000
#08152:0014
#01852:0036000036000000
#0895c:00000052
#08952:00000062
#09052:00000000002200000000000000000000
#0905c:00000000002200000000000000000000
#06952:0000000000000054
#0695a:0000005400000000
#06957:0000000000000053
#07056:00000024000000000000000000000000
#0705b:00000023000000000000000000000000
#06856:0000000000000054
#0655a:0000006400000014
#06556:00000000000000000024000000000000
#001340:1232003200320032
#002340:0032003232003200
#003340:22
#0033a1:1232003200320032
#0043a1:0032003232003200
#0053a1:22
#005360:1333002300000000
#0053b1:0000001300230000
#005320:0000000000130023
#005381:0000000000000013
#006381:0023000000000000
#006320:0013002300000000
#006381:0000001323000000
#006350:00001323
#0063b1:00000013
#0073b1:23
#007340:1333002300000000
#007371:0000001300230000
#007320:0000000000130023
#0073b1:0000000000000013
#0083b1:0023000000000000
#008350:0013002300000000
#008381:0000001323000000
#008350:00001323
#008391:00000013
#009391:23
#009370:12
#010330:2a
#011320:0014000000000000
#011360:0000002400000000
#011380:00000013
#012380:23
#012351:13
#012321:00230000
#012380:00130000
#0123b0:0023
#0133a0:0014000000000000
#013360:0000002400000000
#013350:00000013
#014350:23
#014381:13
#0143b1:00230000
#014350:00130000
#014320:0023
#015320:0014000000000000
#015360:0000002400000000
#015380:00000013
#016380:23
#016351:13
#016321:00230000
#016380:00130000
#0163b0:0023
#0173a0:0014000000002400
#017360:00000000000000540000000000000000
#019320:16
#021360:22
#021381:12
#023381:26
#023360:12
#025320:26
#025381:16
#026381:0022
#027361:00001222
#029381:000000000000000000000000000000120052005200220000
#029371:000000000000000054545400
#031321:1353
#031351:0000330000003323
#031331:0000003300000000
#0313b0:1353
#031380:0000330000003323
#0313a0:0000003300000000
#0323b0:00130000
#032380:0023
#032321:0013
#032351:00000023
#032351:0000000000000013
#033351:0033330000000000
#033321:00000023
#034321:0013
#034351:00000023
#034380:00000013
#0353b0:23
#035351:1323
#035380:0013
#0353b0:00000053
#0363b0:0023000000000000
#035361:0000000000000013
#036361:0023000000000000
#036351:0013
#036321:00000053
#037321:0023000000000000
#036370:0000000000000013
#037370:0023000000000000
#037380:0000000000130000
#0373b0:0000000000000023
#037351:0000000000000013
#038321:0023000000000000
#0383b1:0000001300230000
#038381:0000000000001333
#0393b1:0023
#038350:0000000000000013
#039320:0023
#039380:0000000000000013
#0403b0:00230000
#0403b0:0000001300000000
#040380:00000023
#040380:0000000000000013
#0413b0:0053000000000000
#041380:0000002300000000
#041350:00000013
#042320:23
#042350:00000013
#043350:23
#043381:13230000
#043381:0000000000000013
#0443b1:00230000
#045351:13
#045321:00230000
#045351:0000000000000013
#046331:33
#046321:0033230000000000
#051381:13
#053381:33
#054391:0000000000000000000000520052005200520000000000000000000000000000
#054381:00000000000054545400000000000000
#0553c1:22
#053350:13
#054350:0000000000000000000000520052005200520000000000000000000000000000
#054340:00000000000054545400000000000000
#055320:22
#058350:0013
#059320:26
#059320:0000000000130000
#059350:0000000000000023
#059381:0000000000000013
#0603b1:0023000000000000
#060361:0000001300000000
#060321:00000023
#061371:13
#0613b1:0000002300000000
#061360:0000001300000000
#061320:0000000000003323
#061371:0000000000001323
#062371:00000013
#063381:26
#0633b1:0000000000130000
#063381:0000000000000023
#063350:0000000000000013
#064320:0023000000000000
#064370:0000001300000000
#0643b0:00000023
#0653a0:0000001400002400
#065360:00000000000000000054000000000000
#066320:0000000000000014
#067320:00240000
#0673a0:0000000000000014
#0683a0:0024000000000000
#068360:0000000000000014
#0693a0:0000003400000000
#069370:0000000000000033
#0703b0:00000053000000000000000000000000
#070370:0023
#069321:0000000000000014
#070361:00000054000000000000000000000000
#070321:0024
#071351:13
#071321:00230000
#072381:13
#0723b1:00230000
#072351:0000000000000013
#073321:0023
#073380:13
#0733b0:0023
#074320:0000000000000014
#075320:0034000000000000
#076350:00530000000000000000000000000000
#077320:24
#0753a1:0014000000000000
#076381:00530000000000000000000000000000
#0773a1:24
#078361:0000000000000014
#079361:0034000000000000
#0793a1:0024
#079320:0014000000000000
#079360:0024
#080360:0000000000000014
#081360:0034000000000000
#081320:0024
#0813a1:0014000000000000
#081361:0024
#082351:0000000000000013
#083351:0033000000000000
#084321:00530000000000000000000000000000
#085361:22
#083380:0013000000000000
#0843b0:00530000000000000000000000000000
#085380:22
#087380:1200000000000022
#087361:0000000000000012
#089361:52
#089321:00000022
#089380:12
#0893c0:00000022
#055930:00155555
#055920:0000005500550055
#056930:55555555
#056920:0055005500550025
#0579a0:0000000000000000000000000000000000000000000000000000000014240000
#057921:0000000000000000000000000000000000000000000000000000000014240000
#0899c1:00000012
#090921:00000000005200000000000000000000
#090971:00000021
#089920:00000012
#0909c0:00000000005200000000000000000000
#090980:00000021
