This file was generated by Ched 2.7.0.0.
#TITLE ""
#ARTIST ""
#DESIGNER ""
#DIFFICULTY 0
#PLAYLEVEL
#SONGID ""
#WAVE ""
#WAVEOFFSET 0
#JACKET ""
#REQUEST "ticks_per_beat 480"
#00002: 4
#BPM01: 192
#00008: 01
#TIL00: ""
#VOLUME: ""
#HISPEED 00
#MEASUREHS 00
#01018:00001313
#01015:0000000000130000
#01012:0000001300000013
#01014:58
#01715:0013000000000000
#01718:0013000000000000
#0301b:00130013
#03018:0013
#03012:00230023
#03015:0023
#03215:00000013
#0321b:00130000
#03218:0013
#03515:1313
#03518:0000001300000000
#03510:41
#03718:0000000013000013
#03715:0000001300130000
#0381b:0000001300000000
#03817:0000000000000013
#03915:00000013
#03912:0000000000000033
#04012:0000001300000000
#04016:0000000000000013
#04215:13
#04218:0013000000002300
#04318:0000001300000013
#04315:00130013
#04415:0000001300000013
#04418:00000013
#04618:1300001300000000
#0461b:0000000000130013
#04615:0013000013001300
#04712:0000000000130013
#04718:00000013
#0471f:11
#04818:00000013
#05914:00140000
#05915:0000000000000013
#0591a:2400002400000000
#0591f:21
#06018:00130013
#06015:0000000000000013
#06012:0000001300000000
#06010:41
#05818:00140014
#05814:0014
#06118:1300000000000013
#06115:0000001300000000
#06614:0000001400000000
#06618:00140000
#06814:00140000
#0681a:0000000000000014
#06818:0014000000000000
#06917:0000001400000000
#0691a:0000000000000014
#07017:00000014000000000000000000000000
#07015:00000013
#07018:0000000000000013
#07115:13000013
#07118:0000002300000013
#07218:0000000000130013
#07215:0000002300001300
#0741a:0000140000000014
#07412:00000014
#07416:1414
#07416:0014
#08212:1414
#08214:0000140000000014
#0821a:2424
#08218:00240024
#0831a:0014000000000000
#08312:0014000000000000
#04112:00000013000000000000000000000000
#04118:00000013
#04115:0000003300000000
#07312:00000014
#0771a:00000014
#07712:24
#07816:1414
#07812:0000140000000014
#0781a:00000014
#0141b:1313
#01418:00130000
#01415:00000023
#01212:1313
#01215:00130000
#01315:0013
#0131b:00000023
#01118:2613
#01110:41
#01518:0013
#01612:1313
#01615:00130000
#01818:0014000014000000
#01814:0000240000240000
#02618:00001313
#02615:0000000000130013
#0271b:1300130000000033
#02712:0013001300000000
#02718:00000013
#02815:0000000000130013
#02818:00000013
#0291b:13130000
#02912:0013001300000000
#02918:00001313
#02919:0000000000130000
#03118:13000033
#0311b:00130000
#03115:23000033
#03112:00230000
#0311a:0000003300000000
#03113:0000003300000000
#03318:00130000
#03415:0013000000000000
#03418:00000013
#03413:0000003300000000
#03414:00330000
#03618:0013
#03615:0000001300000000
#04518:0000001300000000
#04512:0000000000130000
#0451b:00000013
#04515:0000000000000013
#04510:41
#05415:0000000000000000000000000000000000130000000000000000000000000000
#05519:00155555
#05518:0000005500550055
#06214:00140014
#06218:0024
#06318:0000140000000013
#06312:2400002400000000
#06415:00130013
#06418:0000000000000013
#0641b:0000001300000000
#06518:0000001300000000
#06515:0000130000000013
#06512:13
#0651b:0013000000000000
#06718:0000001400000000
#06714:00140000
#07616:00140000000000000000000000000000
#07512:0014000000000000
#07510:41
#0791a:0014000000000000
#07912:00000014
#08016:1414
#0801a:0000140000000014
#08012:00000014
#08112:0014000000000000
#08518:0000000000000014
#08514:14
#08714:14
#08718:0000000000000014
#08914:14
#08912:00000013
#0891b:00000013
#05712:25656565
#05713:0065006500650065
#02310:41
#05619:55555555
#05618:0055005500550000
#09012:53
#0901b:53
#01158:16
#01755:0053000000000000
#01758:0063000000000000
#03555:1353
#03758:0000000000000063
#0385b:0000006300000000
#03857:0000000000000053
#03955:00000053
#04052:0000005300000000
#04056:0000000000000053
#0435b:13
#04358:0000000000000053
#04455:0000000000000053
#06158:6300000000000013
#06155:0000005300000000
#0595a:14
#05955:0000000000000053
#05858:00000054
#0685a:0000000000000054
#06957:0000005400000000
#0695a:0000000000000054
#07057:00000024000000000000000000000000
#07155:53
#07158:0000000000000063
#0835a:0064000000000000
#08352:0054000000000000
#04152:00000023000000000000000000000000
#01555:0013000000000000
#01358:0013000000000000
#0145b:5353
#01458:00630000
#01252:6363
#01255:00530000
#01652:6363
#01655:00530000
#02758:00000063
#02958:00006363
#02959:0000000000630000
#03152:00530000
#0315b:00530000
#03358:00530000
#03455:0063000000000000
#03658:0063
#04252:0013
#0465b:0000000000000053
#04752:0000000000000053
#05455:0000000000000000000000000000000000630000000000000000000000000000
#05552:13
#06052:0000001300000000
#06254:00000064
#06352:14
#06358:0000000000000063
#0645b:0000001300000000
#06558:0000006300000000
#06555:0000000000000013
#0665a:0000000000000014
#06752:0000000000000014
#07258:0000000000000063
#0735b:0013
#07656:00240000000000000000000000000000
#07552:0054000000000000
#07752:14
#0795a:0064000000000000
#08152:0054000000000000
#08954:14
#09052:53
#0905b:53
#001380:1232003200320032
#002380:0032003232003200
#003380:22
#003361:1232003200320032
#004361:0032003232003200
#005361:22
#005380:1333003300330033
#006380:0033003300000000
#0063a0:00003333
#0073a0:23
#007351:1333003300330033
#008351:0033003300000000
#008331:00003333
#009331:23
#009360:14
#010340:28
#011320:00000013
#012320:3333
#012350:00330023
#012381:0000000000001333
#013381:0023000000000000
#0133b1:00000013
#0143b1:3333
#014381:00330023
#014350:0000000000001333
#015350:0023000000000000
#016320:1333
#016350:00330023
#016381:0000000000001333
#017381:0033000000000000
#0173b1:0000000000000023
#017350:0013000000000000
#017320:0000000000000023
#019380:13
#021380:36
#0233b0:23
#023351:13
#025321:36
#026321:23
#027381:00001333
#0273b1:0000000000000033
#0283b1:0023000000000000
#029381:00001353
#029391:0000000000330023
#031321:00130000
#031331:0000003300000000
#031351:0000000000003323
#0313b0:00130000
#0313a0:0000003300000000
#031380:0000000000003323
#032380:0000000000000013
#033380:0033330000000000
#0333b0:00000023
#033351:0000000000001333
#034351:0033000000000000
#034341:00330000
#034331:0000003300000000
#034321:0023
#035351:0013
#035321:0000000000003333
#036321:0023000000000000
#036381:0013
#0363b1:0000000000003333
#0373b1:0023000000000000
#037381:0000000000000013
#0383b1:0033333300000000
#038371:0000000000333333
#0393b1:0023
#039351:00000013
#039321:0000000000000033
#040321:0033333300000000
#040361:0000000000003333
#041321:00000053000000000000000000000000
#041351:0000003323000000
#042351:00130000
#042321:0023
#042381:00000013
#0433b1:23
#043381:0000000000000013
#0443b1:00230000
#044351:0000000000000013
#045321:00230000
#0463b1:0000000000000013
#047381:0023
#047321:0000000000000013
#048351:0023
#048351:0000000000000013
#049321:00230000
#049381:0000001300000000
#0493b1:00000023
#049321:0000000000000013
#050351:00230000
#0503b1:0000001300000000
#050381:00000023
#050351:0000000000000013
#053331:57
#054351:0000000000000000000000530053005300530000000000000000000000000000
#054341:00000000000055553500000000000000
#055321:23
#058381:00000014
#0593a1:24
#059351:0000000000130033
#060321:0023000000000000
#061381:13
#0613b1:00230000
#061351:0000001300000000
#061321:00000023
#062341:00000014
#063321:24
#063381:0000000000130033
#0643b1:0023000000000000
#065381:0000001300000000
#0653b1:00000023
#066381:00001434
#0663a1:0000000000340024
#067341:00001434
#067321:0000000000340024
#0683a1:0000001400340034
#068381:00003434
#069371:0000343400000000
#0693a1:0000000000003434
#070371:00000054000000000000000000000000
#0703a1:0024
#071351:13
#071321:00230000
#071381:0000000000000013
#0723b1:00230000
#072381:0000000000000013
#0733b1:0023
#075321:0014000000000000
#076361:00540000000000000000000000000000
#077321:24
#0793a1:0014000000000000
#079371:0024
#081321:0014000000000000
#081351:0024
#0833a1:0014000000000000
#084381:0023
#083320:0014000000000000
#084350:0023
#055990:00155555
#055980:0000005500550055
#056990:55555525
#056980:0055005500550000
#057920:15555555
#057930:0055005500550025
#089920:00000013
#090920:53
#090950:00000023
#0899b1:00000013
#0909b1:53
#090981:00000023
