This file was generated by Ched 2.7.0.0.
#TITLE ""
#ARTIST ""
#DESIGNER ""
#DIFFICULTY 0
#PLAYLEVEL
#SONGID ""
#WAVE ""
#WAVEOFFSET 0
#JACKET ""
#REQUEST "ticks_per_beat 480"
#00002: 4
#BPM01: 192
#00008: 01
#TIL00: ""
#VOLUME: ""
#HISPEED 00
#MEASUREHS 00
#01012:0014
#01114:0014
#01118:24
#01110:41
#0121a:14
#01214:0014
#0161a:14
#01614:0014
#0181a:14
#01818:0014
#01718:14
#02118:14
#02014:14
#02212:14
#0231a:14
#02310:41
#02414:14
#02518:14
#02612:14
#02818:0014
#03014:0014
#0271a:14
#02912:14
#03218:0014
#03214:0024
#0311a:14
#03112:24
#03415:0014
#0341a:0014
#03417:14
#03412:14
#0351a:0014
#03510:41
#03614:14
#03618:0014
#03712:14
#0371a:0014
#03814:14
#03818:0014
#03912:14
#04018:14
#04014:0014
#0411a:14
#05812:0014
#0581a:0014
#05912:00160000
#05918:2616
#0591f:21
#04312:14
#0431a:00140000
#04314:0014
#0441a:14
#04412:00140000
#04418:0014
#04512:14
#0451a:00140000
#04514:0014
#04518:00000014
#04510:41
#04612:14
#0461a:00140000
#04614:0014
#04618:00000014
#04712:14
#0471f:11
#04713:00340000
#04818:14
#04819:00340000
#04914:14
#04913:00340000
#0501a:14
#05019:00340000
#05112:14
#0551a:14
#05519:0034
#06012:1616
#06018:00160000
#06010:41
#06118:14
#06114:00140000
#0611a:0014
#06112:00000014
#06218:14
#06214:00140000
#0621a:0014
#06318:00160000
#06312:2616
#06418:1616
#06412:00160000
#06514:14
#06518:00140000
#06512:0014
#0651a:00000014
#06614:14000014
#0661a:0024
#0671a:14
#06718:00000014
#06712:0024
#06812:14
#06814:00000014
#0681a:0024
#0691a:14
#06918:0014
#0701a:14
#07112:14
#0721a:14
#07314:14
#07318:00000016
#07412:1616
#07418:00160000
#07518:0016000000000000
#07510:41
#07615:00000000001600000000000000000000
#07814:14
#07812:00000000340000143400000034000000
#08018:14
#0801a:00000000340000143400000034000000
#08318:0016000000000000
#08416:00150000000000000000000000000000
#01412:24
#01418:0024
#01514:24
#04214:24
#04218:0024
#08212:2626
#08218:00260000
#05618:34
#05617:0034
#05716:0000340034343400
#08918:00000054
#09018:54
#01158:14
#0195a:14
#0185a:54
#01858:0054
#01758:54
#0275a:54
#02952:54
#0315a:54
#03152:54
#03455:0054
#0345a:0054
#03457:64
#03452:64
#03552:14
#03557:14
#03952:54
#0415a:64
#04352:14
#04752:64
#04754:0014
#04858:64
#0485a:0014
#04954:54
#04952:0014
#0505a:54
#05058:0014
#05152:64
#0555a:54
#05958:0016
#06052:0016
#06352:0016
#06458:0016
#0675a:14
#06852:14
#0695a:64
#06958:0064
#0705a:64
#07058:0014
#07152:54
#0725a:64
#07354:64
#07558:0066000000000000
#07655:00000000002600000000000000000000
#07854:64
#07852:00000000000000240000000000000000
#08058:54
#0805a:00000000000000240000000000000000
#08358:0066000000000000
#08456:00250000000000000000000000000000
#08158:0014
#0855a:14
#08954:14
#001380:14
#002380:0024
#003340:14
#004340:0024
#005390:15
#006390:0025
#007320:15
#008320:0025
#009390:15
#010370:27
#013380:1424
#015340:1424
#017380:14
#0183a0:34
#018380:0034
#0193a0:24
#0273a0:14
#028380:24
#029320:14
#030340:24
#0313a0:14
#032380:24
#031321:14
#032341:24
#033321:14
#033341:0034
#034321:34
#034351:0034
#035321:24
#033380:14
#0333a0:0034
#034370:34
#0343a0:0034
#035370:24
#039320:14
#039340:0024
#0413a0:14
#041380:0024
#047320:14
#047330:00340000
#047340:0024
#048380:14
#048390:00340000
#0483a0:0024
#049340:14
#049330:00340000
#049320:0024
#0503a0:14
#050390:00340000
#050380:0024
#051320:14
#053360:54
#054340:0028
#0553a0:14
#055390:0034
#056380:34
#056370:0034
#057360:3400340034343400
#057350:0000000000000026
#0693a0:14
#069380:0034
#0703a0:34
#070380:0024
#071320:14
#071340:0024
#0723a0:14
#072380:0024
#073340:14
#073320:0024
#074380:0000000000001636
#075380:0036000000000000
#076350:00000000005600000000000000000000
#077380:0026
#078340:1400000000000034
#078320:00000000340000543400000034000000
#079340:0034000024000000
#080380:1400000000000034
#0803a0:00000000340000543400000034000000
#081380:0034000024000000
#082380:0000000000001636
#083380:0036000000000000
#084360:00550000000000000000000000000000
#0853a0:24
#087340:1400000000000034
#089340:24
#089980:00000014
#090980:54000024
