This file was generated by Ched 2.7.0.0.
#TITLE ""
#ARTIST ""
#DESIGNER ""
#DIFFICULTY 0
#PLAYLEVEL
#SONGID ""
#WAVE ""
#WAVEOFFSET 0
#JACKET ""
#REQUEST "ticks_per_beat 480"
#00002: 4
#BPM01: 193
#00008: 01
#TIL00: ""
#VOLUME: ""
#HISPEED 00
#MEASUREHS 00
#0021a:14
#00312:14
#00412:14
#00614:14
#0071a:14
#00812:14
#00918:14
#01014:14
#0111a:14
#01212:14
#01418:14
#01514:14
#01614:14
#0171a:14
#0181a:14
#01912:14
#02012:14
#03012:14
#03118:14
#03214:14
#0331a:14
#03412:14
#03712:14
#0381a:14
#03914:14
#04018:14
#04112:14
#0421a:14
#05318:2616
#05412:1616
#05518:16
#05512:0016
#05712:1616
#00518:14
#00510:41
#0011a:14
#01318:14
#01310:41
#0291a:14
#02910:41
#04512:0016
#04518:26
#0451f:21
#04618:1616
#04610:41
#04918:0016
#04912:16
#05012:1616
#04818:0016
#05212:0016
#05618:1616
#06018:14
#06112:14
#06218:14
#06314:14
#0641a:14
#06514:14
#0661a:14
#0361f:11
#05912:24
#05910:41
#02110:41
#021380:14
#022380:24
#023340:14
#024340:24
#0253a0:14
#0263a0:24
#027320:14
#028320:24
#035380:14
#036380:24
#043340:14
#044340:24
#047320:1636
#048320:26
#051380:1636
#052380:26
#058380:1626
#067320:14
#068320:24
#0693a0:14
#0703a0:34003424
