This file was generated by Ched 2.7.0.0.
#TITLE ""
#ARTIST ""
#DESIGNER ""
#DIFFICULTY 0
#PLAYLEVEL
#SONGID ""
#WAVE ""
#WAVEOFFSET 0
#JACKET ""
#REQUEST "ticks_per_beat 480"
#00002: 4
#BPM01: 193
#00008: 01
#TIL00: ""
#VOLUME: ""
#HISPEED 00
#MEASUREHS 00
#05815:00131300
#0581b:00131300
#05812:14
#02918:0013001300000000
#02912:23130000
#02915:00001313
#0291b:0000000000130013
#02910:41
#03012:13000013
#0301b:00130000
#03015:0013
#03018:0000000000130000
#03312:00130013
#03318:0000001300000013
#03315:0013
#0331b:0000000000130000
#03319:23
#03314:23
#0381a:14
#03817:0000001400000000
#04118:00130000
#04112:2413
#04113:0000000000530000
#04114:00000053
#04115:0000000000000053
#02112:2313
#02118:0000130000130000
#02115:00000013
#0211b:0000000000000013
#02110:41
#02212:13
#02215:00130000
#01312:2300130000000013
#01318:23130013
#0131b:0013
#01315:0000000000130000
#01310:41
#01418:00130000
#0141b:13
#01412:00000013
#02018:13
#02012:13
#02015:00000013
#0201b:00000013
#00615:0000000000130013
#00618:00130013
#00115:0013000000000000
#00118:0000130000000013
#00112:0000001300000000
#0011b:2313
#00215:00130013
#00218:0000001300000013
#00212:0013
#0021b:0000000000130000
#03415:1313
#03412:00130000
#06515:00131313
#06512:13
#06518:0013000000130000
#0651b:0000001300000013
#06618:00130013
#06615:0000001300000013
#0661b:0013
#06612:0013000000130000
#00712:0013
#00718:0000000000130000
#00715:00000013
#0071b:0000000000000013
#00818:0013
#00812:13
#00815:00130000
#0081b:00000013
#01018:0000000000130013
#01015:00130013
#00915:0013
#00918:0013000000000013
#00912:23
#0151b:1300130000000013
#01515:13130013
#01512:0013
#01518:0000000000130000
#01712:13130000
#01718:13130000
#01715:0000000000330000
#0171b:0000000000330000
#0181b:13130000
#01815:13130000
#01818:0000000000330000
#01812:0000000000330000
#0231b:1313
#02315:0000130000130000
#02318:00000013
#02312:0000000000000013
#0241b:13
#02418:00130000
#03115:0013001300000000
#0311b:23130000
#03118:00001313
#03112:0000000000130013
#0321b:13000013
#03212:00130000
#03218:0013
#03215:0000000000130000
#0351b:1313
#03518:00130013
#03615:00001313
#03618:0000000000130000
#0361f:11
#0371b:13
#03718:00130000
#03715:0013
#03712:00000013
#03912:13
#03915:00130000
#03918:0013
#0391b:00000013
#0421b:00131300
#04216:5313
#04312:13
#04317:13
#04316:0013
#0431b:0013
#0471b:1313
#04718:00130000
#04812:00130000
#04814:0013
#04816:00000013
#04817:00130000
#04819:0013
#0481b:00000013
#0561b:00130000
#05619:0013
#05617:00000013
#05616:00130000
#05614:0013
#05612:00000013
#00318:0013000000000000
#00315:0000130000000013
#0031b:0000001300000000
#00312:1313
#00418:00131400
#00415:0000001300000000
#00414:0000000000140000
#00412:00000014
#0041a:00000014
#00515:0013000000000013
#00518:0013
#0051a:24
#00510:41
#01218:0000001313000000
#01212:1300001313000000
#0121b:13
#01112:1313
#0111b:1313
#01115:00130000
#01118:00000013
#01615:00130000
#01612:13
#0161b:00000013
#01912:13
#01918:13
#0191b:00130000
#01915:00130000
#0191a:0013
#01914:0013
#01913:00000013
#01919:00000013
#0251b:13131300
#02516:13131300
#02514:0000000000530000
#02512:00000053
#02519:0000000000530000
#02517:00000053
#02612:13131300
#02617:13131300
#02619:0000000000530000
#0261b:00000053
#02614:0000000000530000
#02616:00000053
#0271b:13
#02715:13
#02712:0013
#02718:0013
#0281b:13
#02815:13
#04012:14
#04015:0014
#04518:00130000
#0451b:13
#04515:00000013
#0451f:21
#04615:00130000
#04612:13
#04618:00000013
#04610:41
#05112:1313
#05115:00130000
#04915:00130000
#04912:13
#04918:00000013
#05018:00130000
#0501b:13
#05015:00000013
#0521b:13000013
#05212:00130000
#05214:0013
#05216:00000013
#05217:00130000
#05219:0013
#0531b:00130000
#05318:13000013
#05312:13000013
#05315:00130000
#05412:00130000
#05415:13000013
#05418:00130000
#0541b:13000013
#0551b:00130000
#05518:1313
#05515:00130000
#05512:1313
#05712:00140000
#05716:0014
#0571a:14000014
#05918:0013000000000000
#05915:00131300
#0591b:0000001300000000
#05912:2300000000000053
#05910:41
#05914:0000000000530000
#05913:00000053
#06018:0013001300000000
#06015:00130000
#06012:0013
#06014:00000053
#06013:0000000000530000
#06115:0013000000000000
#06118:00131300
#06112:0000001300000000
#0611b:1300000000000053
#06119:0000000000530000
#0611a:00000053
#06215:0013001300000000
#06218:00130000
#0621b:0013
#06219:00000053
#0621a:0000000000530000
#0631b:0013000000000000
#06318:0000130013000013
#06315:0000001300001300
#06312:2300000000130000
#06412:0013000000130000
#06415:00130013
#06418:0000001300000013
#0641b:0013
#06912:1313
#06918:0000000000130000
#06915:00000013
#0691b:0000230000000023
#07015:0013000000000000
#07012:0013
#0701b:00000013
#07018:00230000
#04414:0000000000240000
#04418:0024
#0671a:24
#05855:0053
#05852:14
#0585b:0053
#03052:13
#0305b:00130000
#0385a:54
#03857:0000002400000000
#02152:13
#02158:00130000
#02252:5313
#02255:00530000
#0145b:53
#01458:00530000
#02058:63
#02052:63
#0015b:0053
#00158:0000000000000053
#03455:5353
#03452:00530000
#00858:0013
#00852:13
#00855:00130000
#0085b:00000013
#00955:0063
#00958:0053000000000053
#01055:00630000
#0245b:6313
#02458:00630000
#02355:00130000
#0235b:13
#0325b:13
#03252:00130000
#0355b:5353
#03558:00530053
#04256:1353
#0425b:0053
#04352:53
#04357:53
#04356:0023
#0435b:0023
#0475b:5353
#04758:00530013
#00352:0063
#00355:0000000000000063
#00555:0063000000000063
#00558:0053
#00658:00530000
#01258:0063
#01252:1363
#0125b:13
#01655:00630000
#01652:63
#0275b:63
#02755:63
#02752:0053
#02758:0053
#0285b:63
#02855:63
#02852:0013
#02858:0013
#04052:64
#04055:0064
#04152:14
#04457:13
#04452:13
#04558:00530000
#0455b:5313
#04655:00630000
#04652:6313
#05152:6363
#05155:00630013
#04955:00630000
#04952:6313
#05058:00530000
#0505b:5313
#0535b:00630000
#05358:6313
#05355:00630000
#05352:6313
#05452:00530000
#05455:5313
#05458:00530000
#0545b:5313
#0555b:00630013
#05558:6353
#05555:00630013
#05552:6353
#0575a:14
#05952:0000000000000013
#0615b:0000000000000013
#06054:00000013
#06358:0000000000000013
#0655b:0000000000000013
#0675a:54
#0705b:00000013
#06259:00000013
#0013b0:0013
#001380:0000000000003333
#0023b0:0023000000000000
#003320:0013
#003350:0000000000003333
#004320:0023000000000000
#005350:0013000000000000
#005320:0000002300000000
#005380:0013
#0053b0:00000023
#005350:0000000000000013
#006320:0023000000000000
#006380:00130000
#0063b0:0023
#0073b0:13230000
#007321:13230000
#009381:0013000000000000
#0093b1:0000002300000000
#009351:0013
#009321:00000023
#009381:0000000000000013
#0103b1:0023000000000000
#010351:00130000
#010321:0023
#012381:0013
#0123b1:00000023
#012320:0013
#012350:00000023
#0143b0:1323
#014380:00330000
#016320:1323
#016350:00330000
#017380:0013
#0173b0:0000000000332300
#017321:0013
#017351:0000000000332300
#018351:0013
#018321:0000000000332300
#0183b0:0013
#018380:0000000000332300
#020380:13
#0203b0:0023
#020321:13
#020351:0023
#022321:1323
#022351:00330000
#0243b1:1323
#024381:00330000
#0273b1:13
#027381:00230000
#027350:13
#027320:00230000
#027320:0013
#027350:00000023
#027381:0013
#0273b1:00000023
#0283b1:13
#028381:0023
#028350:13
#028320:0023
#034350:1333
#034320:00330023
#0353b0:1333
#035380:00330033
#0363b0:00230000
#0383a0:14000024
#038370:0000005400000000
#040320:14
#040350:0034
#041320:24
#042360:0013
#043320:33
#043360:0053
#044320:23
#0423b1:0013
#043371:33
#0433b1:0053
#044371:23
#0453b1:1323
#045381:00330000
#046321:1323
#046351:00330000
#0473b1:1333
#047381:00330023
#049321:1323
#049351:00330000
#0503b1:1323
#050381:00330000
#051321:1333
#051351:00330023
#053381:1323
#0533b1:00330000
#053320:1323
#053350:00330000
#054350:1323
#054320:00330000
#0543b1:1323
#054381:00330000
#055381:1333
#0553b1:00330023
#055320:1333
#055350:00330023
#058350:0013
#058320:00000023
#0583b1:0013
#058381:00000023
#0673a1:14
#0683b1:00000023
#0259b0:0013
#025970:00000023
#025961:0013
#025921:00000023
#026921:0013
#026961:00000023
#026970:0013
#0269b0:00000023
#041920:0013
#042960:23
#059950:0013
#059920:0000000000000023
#060920:0013
#060940:00000023
#061980:0013
#0619b0:0000000000000023
#0629b0:0013
#062990:00000023
