This file was generated by Ched 2.7.0.0.
#TITLE ""
#ARTIST ""
#DESIGNER ""
#DIFFICULTY 0
#PLAYLEVEL
#SONGID ""
#WAVE ""
#WAVEOFFSET 0
#JACKET ""
#REQUEST "ticks_per_beat 480"
#00002: 4
#BPM01: 193
#00008: 01
#TIL00: ""
#VOLUME: ""
#HISPEED 00
#MEASUREHS 00
#0011a:2414
#00214:1414
#00318:1414
#00412:1414
#02918:0014
#02912:24
#02910:41
#03312:14
#03318:0014
#03414:14
#0341a:0014
#03512:14
#03518:00140000
#03514:0014
#0351a:00000014
#03712:14
#03718:0014
#04118:0014
#04114:14
#04212:14
#04218:00140000
#04514:00140000
#04518:0014
#04512:00000014
#0451a:24
#0451f:21
#0461a:14
#04614:00140000
#04618:0014
#04612:00000014
#04610:41
#04812:00140000
#04816:0014
#0481a:00000014
#04918:00140000
#04914:0014
#0491a:00000014
#04912:14
#05012:14
#05018:00140000
#05014:0014
#0501a:00000014
#0531a:1414
#05314:00140014
#05418:1414
#05412:00140014
#05612:00140000
#05616:0014
#0561a:00000014
#05714:14
#05718:00140000
#05712:0014
#05916:00000014
#05912:24
#05910:41
#0611a:1414
#06114:00140000
#06212:1414
#06218:00140000
#0631a:14
#06314:00140000
#06318:0014
#06414:14
#06418:00140000
#06412:0014
#0651a:14
#06512:00140000
#06518:0014
#06614:14
#0661a:00140000
#06612:0014
#0051a:14
#00514:0014
#00510:41
#00618:14
#00612:0014
#00914:0014
#0091a:14
#01018:14
#01012:0014
#0131a:2414
#01310:41
#01512:1414
#02518:00140000
#02514:0014
#02512:14
#02712:14000014
#0271a:00140000
#02716:0014
#0281a:14
#02818:00140000
#03218:1414
#03214:00140000
#01714:00140000
#0171a:1414
#01818:00140000
#01812:1414
#02614:00140000
#02618:0014
#0261a:14
#03014:1414
#03018:00140000
#0311a:14
#03114:0014
#03618:0014000000000000
#0361f:11
#0391a:14
#03914:0014
#00814:1414
#00818:00140000
#02112:2414
#02118:00140014
#02110:41
#0231a:1414
#02314:00140014
#04314:0014
#04312:14
#0521a:00140000
#05216:0014
#05212:00000014
#02212:14
#02213:00540000
#02214:0054
#0241a:14
#02419:00540000
#02418:0054
#0141a:14545400
#01612:14545400
#04415:0026
#0671a:24
#04718:00343400
#0551a:00343400
#05114:00343400
#05952:54
#05956:00000024
#0055a:14
#02858:00240000
#0285a:54
#0355a:00000064
#03658:0024000000000000
#0095a:14
#04354:0024
#04352:64
#04758:00000014
#0455a:14
#0555a:00000014
#05154:00000014
#0585a:0014
#07054:00000014
#04058:0014
#04154:14
#007380:14
#007390:00340000
#0073a0:0024
#011380:14
#011390:00340000
#0113a0:0024
#012340:14
#012330:00340000
#012320:0024
#0193a0:14
#019380:0034
#020380:34
#0203a0:0024
#0283a0:1424
#028380:00540000
#0353a0:00000014
#036380:0054000000000000
#0363a0:0024
#038340:1424
#040380:1424
#042340:0014
#043320:34
#043340:0054
#044320:24
#0473a0:14
#047380:00343424
#051320:14
#051340:00343424
#055380:14
#0553a0:00343424
#0573a0:00000014
#0583a0:00342400
#059320:14
#059360:00000054
#060320:0024
#0673a0:14
#068380:0024
#069320:14
#070340:00003424
#0149a0:1424
#016920:1424
#022920:14
#022940:0024
#0249a0:14
#024980:0024
