This file was generated by Ched 2.7.0.0.
#TITLE ""
#ARTIST ""
#DESIGNER ""
#DIFFICULTY 0
#PLAYLEVEL
#SONGID ""
#WAVE ""
#WAVEOFFSET 0
#JACKET ""
#REQUEST "ticks_per_beat 480"
#00002: 4
#BPM01: 180
#00008: 01
#TIL00: ""
#VOLUME: ""
#HISPEED 00
#MEASUREHS 00
#0051a:14
#00612:14
#01018:14
#01112:14
#01218:14
#01314:14
#0141a:14
#01514:14
#0201a:14
#02114:14
#02110:41
#02218:14
#02312:14
#0241a:14
#02718:14
#02818:14
#0311a:14
#03318:0016
#03312:26
#03310:41
#03518:16
#03512:0016
#03618:16
#03612:0016
#04218:14
#04314:14
#0441a:14
#04618:14
#04714:14
#05712:14
#05710:41
#05812:14
#06118:14
#06218:14
#06514:14
#0651f:11
#0661a:14
#07718:16
#07712:0016
#0771f:21
#00912:14
#00910:41
#01912:14
#02512:14
#02612:14
#02914:14
#03014:14
#0321a:14
#04112:14
#04512:14
#04510:41
#0481a:14
#06918:14
#07012:14
#07312:14
#0731a:14
#07912:16
#07918:0016
#08012:16
#08018:0016
#08312:0016
#08318:26
#08512:16
#08518:0016
#08612:16
#08618:0016
#08712:1616
#08818:1616
#0751a:24
#07512:24
#09118:24
#08112:26
#08118:0026
#08212:26
#08912:26
#07810:41
#001380:14
#002380:24
#003340:14
#004340:24
#007380:14
#008380:24
#0163a0:14
#0173a0:24
#034320:1626
#037380:1626
#038320:1626
#039380:16363636
#040380:26
#049340:14
#050320:24
#051380:14
#0523a0:24
#053320:14
#054340:24
#0553a0:14
#056380:24
#059320:14
#060320:24
#063380:14
#064380:24
#067340:14
#068340:24
#071380:14
#072380:24
#078380:1626
#082320:1626
#084380:1626
#089320:1636
#090320:26
