This file was generated by Ched 2.7.0.0.
#TITLE ""
#ARTIST ""
#DESIGNER ""
#DIFFICULTY 0
#PLAYLEVEL
#SONGID ""
#WAVE ""
#WAVEOFFSET 0
#JACKET ""
#REQUEST "ticks_per_beat 480"
#00002: 4
#BPM01: 180
#00008: 01
#TIL00: ""
#VOLUME: ""
#HISPEED 00
#MEASUREHS 00
#00912:00000000130000000000002300000000
#0091b:1300000023000023
#00919:0000001300000000
#00917:00000000000000000000002300000000
#00916:0000000023000023
#00910:41
#00714:2414000024140000
#00718:00000000240014000014001400000000
#0071a:00000000000000000000000000140014
#00712:0000000000002414
#01012:13131300
#01015:0013000000000000
#01016:00000013
#01018:13130000
#0101b:0000001300001300
#01017:0013
#0171b:13
#01818:13
#01815:13
#0181b:00000023
#01812:00000023
#0191b:00130000
#01912:13000013
#01917:2300000000130013
#01916:0000001300000000
#02016:00000013
#02014:0000000000000013
#02012:00131300
#0201b:00000013
#02418:00000000000000000000120000120000
#0241a:0014
#02416:0000000000001212
#02718:0013131300000013
#02715:00000000001300000000130000000000
#0331b:1300001300000013
#03317:0000000000130000
#03312:13131313
#03310:41
#03418:0000000000000013
#03412:13131313
#03417:0000001300000000
#0351b:13131313
#03512:0000000000000013
#03516:1300000000130000
#03514:00000013
#0371b:0013
#03717:0000001300000013
#03719:00000000000000000000001300000000
#03712:23232323
#05012:13000000000000000000000000000000000000000000000000000000000000530000000000000000000000000000000000000000000000530000000000000000
#05014:00000000000000001300000000000000000000000000000000000000005300000000000000000000000000000000000000000000005300000000000000000000
#0501b:13000000000000000000000000000000000000530000000000000000000000000000000000000000000000530000000000000000000000000000000000000000
#05019:00000000000000001300000000000000005300000000000000000000000000000000000000000000005300000000000000000000000000000000000000000000
#05015:00000000000000130000000000130000
#05018:0000130000130000
#05013:0000000000000000000000000000005300000000000000000000005300000000
#0501a:0000000000000000005300000000000000000000005300000000000000000000
#0511b:1300001300000000
#05115:0013000000000000
#05118:00130016
#05112:1316
#05218:13000013000000000000000000130000
#05215:0013130000000013
#0521b:00000000000013000000130000000013
#05212:13002323
#05217:0013
#05216:0000000000130000
#05714:14
#0571b:1313
#05712:0024
#05710:41
#05814:14
#0581b:1313
#05812:0024
#06516:0013
#06514:00000013
#0651f:11
#0651a:24242424
#0801b:2300231300001300
#08018:0000000000130000
#08012:13
#08015:00000000000000000000002300002300
#0901b:0000001300000013
#09015:0000000000130000
#09012:1323
#09017:23
#09018:00000023
#00112:0013
#00115:13
#00118:23
#0041b:0013
#00418:1300000000001212
#00416:00000000000000000000000000120000
#00412:3300000000130000
#00212:0013
#00215:13
#0021b:13
#0051b:1300000000130000
#00518:0000001300000012
#00516:00000000000000000000000000000012
#00512:24242424
#00616:0000000000000012
#00618:00000000000000000000000000000012
#00615:0000001300000000
#00612:0000000000130000
#0061a:24242424
#00818:0000000000000013
#00815:00000000000000000000000000000013
#00812:24000024
#0081a:00000024
#01112:1300000023000023
#0111b:00000000130000000000002300000000
#01114:0000001300000000
#01116:00000000000000000000002300000000
#01117:0000000023000023
#0121b:13000013
#01217:000000000000130000000000000000000000003333333333
#01212:000000000000130000000000130000000000003333333333
#01216:13000013
#02112:1300130000000013
#0211b:13
#02117:0000001300000000
#02116:0000000000130000
#02110:41
#02216:0000001300000000
#0221b:0000130000131300
#02312:00130000
#0231b:13000013
#02316:0000000000130013
#02317:0000001300000000
#02512:1300130013000013
#02518:0000000000130000
#02515:0013001300001300
#0251b:0013
#0251a:24240000
#02612:24241313
#02615:0000000000130013
#0261b:13131313
#02618:00001300000013000000000000000013
#0281b:1313
#02817:0013000000130000
#02812:13130013
#02816:0000001300000013
#03118:0013000000000000
#03112:0000000000130000
#03115:0000000000000013
#0311b:0000001300000000
#02912:00131313
#02915:0013001300130000
#02918:00000000000000130000000013000000
#0291b:0000000000000013
#0291a:24240000
#03216:0000230000001212
#03218:00000000000000000000000000120000
#03217:2323
#03212:2323
#03214:0023000000000000
#0321b:00230000
#03219:0000002300000000
#0361b:13130000
#03615:0000001300000000
#03618:00000000000000130000000000000000
#03612:0024
#03616:00000000000000000000002400000000
#0361a:0000000000000024
#03816:0000001300000000
#03812:0000000000130000
#03815:00000013
#03818:0000000000000013
#0381b:23232323
#03918:00001300000000000013001300000000
#0391b:00000000000013000000000000130013
#03915:2300000023130000
#03912:0000230000002313
#04115:0000130000000013
#0411b:00000000001300000000230000000000
#04112:1300001300001300
#04118:23000000000000130000000013000013
#0431b:00000000130000000000000000000013
#04315:00000000001300000000130000001300
#04318:00000000000013000000001300130000
#04312:23000000000000130000000013000000
#04515:00000000000000000000000013000013
#04518:0000000000000013
#04512:00000024000000000000130000000000
#0451b:0000000000130000
#0451a:2400002400000000
#04516:2300002300000000
#04517:00000023000000000000000000000000
#04510:41
#0481b:2323001300000000
#04815:00000000000000130000000000000000
#04812:00230000
#04818:00230000
#0541b:13000000000000230000000000230000
#05419:0000000013000000000000000000006300000000000000000000006300000000
#05412:1300230000230000
#05414:0000000013000000006300000000000000000000006300000000000000000000
#05413:00000000000000000000000000000000006300000000000000000000000000000000000000000000006300000000000000000000000000000000000000000000
#05415:00000000000000000000000000000000000000630000000000000000000000000000000000000000000000630000000000000000000000000000000000000000
#0541a:00000000000000000000000000000000000000000000000000000000006300000000000000000000000000000000000000000000006300000000000000000000
#05418:00000000000000000000000000000000000000000000000000000000000000630000000000000000000000000000000000000000000000630000000000000000
#05617:1323
#05614:0013000000000000
#05619:0000001300000000
#05616:0000130000002424
#05612:2323
#0561b:00230000
#06018:14
#06012:1313
#0601a:0024
#05912:1313
#0591a:0024
#0611b:1313
#06112:0024
#06212:1313
#0621a:0024
#06612:13
#06614:00130013
#06616:0013
#0661a:24242424
#06718:13
#0671b:0013
#06712:24242424
#06818:1313
#0681b:0000130000530000
#06815:00000013
#06812:2400240000000053
#06819:000000000000000000000000005300000000000000000000
#0681a:000000000000005300000000
#06814:000000000000000000000000000000000000005300000000
#06813:000000000053
#07316:14
#0751a:1400000024000024
#07516:0000000013000013
#07517:00000000000000000000001300000000
#07512:24000000000000000000002400000000
#07617:0000000013000013
#07616:00000000000000000000001300000000
#07612:0024240024000024
#0761a:00002400240000000000002400000000
#0771b:1300000000000023
#07717:0000001300000000
#07715:0000000000130000
#07712:00232313
#07716:23
#07718:00000000000000000000002300000000
#0771f:21
#07818:0013001300000000
#07815:23001313
#0781b:0023
#07819:00000000000000000000002300000000
#07817:0000000000000023
#07812:00230000
#07810:41
#0791b:1300001300000000
#07916:0000001300000023
#07918:00001313
#07912:23232300
#07914:00000000000000000000002300000000
#08312:1323
#08316:0000001300000000
#0831b:0000231300001300
#08318:0000000000130000
#08315:00000000000000000000002300002300
#08317:23
#0841b:13
#08417:0000001300000000
#08412:2300231300130000
#08418:00000013
#08415:0000000000000023
#0161b:2313
#01618:0013000000000000
#01612:0000001300001300
#01615:00230000
#05518:0013000000000000
#05512:0000000000130000
#05515:0000000000000013
#0551b:0000001300000000
#08112:13001313
#08115:0000000000130000
#08114:0000001300000023
#08117:23
#0811b:00232300
#08118:00000000000000000000002300000000
#00312:00000013
#0031b:0013
#00315:23
#01312:23000000140000000000002300000000
#01316:0000001423000023
#01317:23000000000000000000002300000000
#0131b:0000000023000023
#0301b:13131313
#03018:00001300000013000000130000000013
#03015:00000000000000130000000013000000
#03012:2400240000000013
#04712:00000000130000000000000000000013
#04718:00000000001300000000130000001300
#04715:00000000000013000000001300130000
#0471b:23000000000000130000000013000000
#0631b:1313
#06312:0024
#06412:1313
#0641a:0024
#07118:2414000024140000
#07114:00000000240014000014001400000000
#07112:00000000000000000000000000140014
#0711a:0000000000002414
#06912:0013000000130000
#06916:0000000000000012
#06918:00000000000000000000000000000012
#06915:0000001300000000
#0691a:24242424
#07018:0000001300000012
#07016:00000000000000000000000000000012
#0701b:0013000000130000
#07012:24242424
#08216:13
#08219:24
#08217:00240000
#08215:0024
#08213:00000024
#08512:1300000000000023
#08516:0000001300000000
#08518:0000000000130000
#0851b:00232313
#08517:23
#08515:00000000000000000000002300000000
#08615:0013001300000000
#08618:23001313
#08612:0023
#08614:00000000000000000000002300000000
#08616:0000000000000023
#0861b:00230000
#08712:1300001300000000
#08717:0000001300000023
#08715:00001313
#0871b:23232300
#08719:00000000000000000000002300000000
#0881b:13
#08812:2300231300001300
#08815:0000000000130000
#08818:00000000000000000000002300002300
#08918:0000000000130000
#0891b:13002313
#08919:0000001300000023
#08916:23
#08912:00232300
#08915:00000000000000000000002300000000
#04417:0013
#04416:0000006300001300
#04418:0023000000000000
#04412:2300230063000063
#04419:00000000000000000053000000000000
#04414:00000000006300630000000000530000
#0441b:0000000000630000
#0421b:00135300
#04218:0023000000002300
#04215:0023
#04219:00000000005300530000000000000000
#04217:0000005300000000
#04612:00135300
#04615:0023000000002300
#04618:0023
#04614:00000000005300530000000000000000
#04616:0000005300000000
#01412:13131300
#01415:0013000000000000
#01416:00000013
#01418:13130000
#0141b:0000001300001300
#01417:0013
#01512:1300000023000023
#0151b:00000000130000000000002300000000
#01514:0000001300000000
#01516:00000000000000000000002300000000
#01517:0000000023000023
#04918:23000000000000130000000000130000
#04915:0000130000130000
#04919:00000000000000000000000000000000000000000000000000000000005300000000000000000000000000000000000000000000005300000000000000000000
#0491a:0000000000000000000000000000005300000000000000000000005300000000
#0491b:00000000000000000000000000000000000000000000000000000000000000530000000000000000000000000000000000000000000000530000000000000000
#04912:00000000000000000000000000000000000000530000000000000000000000000000000000000000000000530000000000000000000000000000000000000000
#04913:0000000000000000005300000000000000000000005300000000000000000000
#04914:00000000000000000000000000000000005300000000000000000000000000000000000000000000005300000000000000000000000000000000000000000000
#07212:00000024
#0721a:24000024
#09112:23
#04012:00000024
#0401a:00000024
#04015:23
#05315:23000000000000000000000000000000000000000000000000000000000000630000000000000000000000000000000000000000000000630000000000000000
#0531b:0000230000230000
#05312:00000000000000230000000000230000
#0531a:00000000000000000000000000000000006300000000000000000000000000000000000000000000006300000000000000000000000000000000000000000000
#05319:0000000000000000006300000000000000000000006300000000000000000000
#05318:00000000000000000000000000000000000000630000000000000000000000000000000000000000000000630000000000000000000000000000000000000000
#05313:00000000000000000000000000000000000000000000000000000000006300000000000000000000000000000000000000000000006300000000000000000000
#05314:0000000000000000000000000000006300000000000000000000006300000000
#07412:00000024
#0741a:00000024
#00158:53
#00852:14000014
#0085a:00000014
#0175b:53
#01858:53
#0185b:00000013
#01852:00000013
#01855:53
#01957:0000000000000053
#01952:63
#01956:0000005300000000
#03252:0013
#03552:0000000000000063
#03556:63
#04052:00000014
#0405a:00000014
#04055:13
#04158:63
#07252:00000014
#0725a:14000014
#00355:53
#00352:00000023
#0095b:53
#01057:0063
#0105b:00000063
#01152:63
#0125b:63000053
#01257:00630000
#01252:0053
#01256:00000053
#01357:13
#01352:13
#0215b:53
#02157:0000006300000000
#02152:0000000000000063
#02256:0000006300000000
#02356:0000000000000063
#0235b:53
#02357:0000006300000000
#02452:0014
#0245a:0014
#0285b:5353
#02857:0023000000230000
#02852:00630063
#02856:0000002300000023
#0335b:5300000000000063
#03457:0000006300000000
#03652:0014
#03656:00000000000000000000001400000000
#0365a:0000000000000014
#04255:0000000000130000
#04258:0000000000000013
#0445b:0000000000430000
#04452:0000000000000033
#04958:53
#05355:63
#0575b:5353
#0585b:5353
#05952:6363
#0595b:43
#06052:6363
#0615b:5353
#06152:33
#06252:6363
#0625b:43
#06758:53
#0675b:0053
#07452:00000014
#0745a:00000014
#0775b:53
#07757:0000005300000000
#0795b:63
#08352:63
#0845b:53
#08457:0000006300000000
#05552:0013000000000000
#05555:0000001300000000
#05558:0000000000130000
#0555b:0000000000000013
#0025b:23
#0165b:0053
#01652:00000053
#04658:0000000000130000
#04655:0000000000000013
#05152:0036
#05158:00000046
#0635b:5353
#06352:33
#06452:6363
#0645b:43
#08052:53
#08056:0000001300000000
#0805b:0000001300000000
#08259:14
#08257:00140000
#08255:0014
#08253:00000014
#08552:63
#08556:0000006300000000
#08752:53
#0885b:63
#08852:0000001300000000
#08857:0000001300000000
#09152:33
#06552:33
#0475b:53
#09052:53
#0895b:53
#08152:53
#01457:0063
#0145b:00000063
#01552:63
#04352:53
#001380:13
#0023b0:33
#003380:23
#003351:13
#003321:00000053
#004321:33
#004351:0023
#0093b1:13
#009371:00230000
#010371:0013
#0103b1:00000033
#011371:23
#011320:13
#011360:00230000
#0123b0:1323
#012370:00330000
#012321:000000000000000000000000130000000000003333333333
#012361:00000033
#013321:23
#0123b0:00000013
#012370:000000000000000000000000000000000000003333333333
#013370:23
#014370:0013
#0143b0:00000033
#015370:23
#015321:13
#015361:00230000
#0163b1:0013
#016371:00000023
#016320:00000013
#017360:23
#0173b1:13
#018381:33
#0183b1:0000000000332300
#018350:13
#018320:0000000000332300
#019320:13
#019360:00230000
#019360:0000001300000000
#019320:0000000000230000
#019370:0000000000000013
#0203b0:0023
#0213b0:13
#021370:00230000
#021370:0000001300000000
#0213b0:0000000000230000
#021320:0000000000000013
#022360:00230000
#022360:0000001300000000
#022320:00000023
#0233b0:13
#023370:00230000
#023370:0000001300000000
#0233b0:0000000000230000
#023360:0000000000000013
#024320:0024
#027320:1323000000000000
#0273b0:0000000013230000
#027320:0000000000001323
#0283b0:13230000
#028370:0033000000000000
#028321:00132300
#028361:0000003300000000
#0283b0:00001323
#028370:0000000000330000
#028321:00000013
#028361:0000000000000033
#029321:23
#031321:1323000000000000
#031351:0000132300000000
#031381:0000000013230000
#0313b1:0000000000001323
#0333b1:13
#033371:00230000
#0333b1:0000000000000013
#034371:00230000
#034371:0000001300000000
#0343b1:00000023
#035361:13
#035321:0000002300000000
#035321:0000000000000013
#036361:00230000
#0373b1:13230000
#038321:13230000
#041381:13
#0413b1:00230000
#041351:0000000013230000
#042321:1323000000000000
#042351:0000000013230000
#042381:0000000000001323
#043321:13
#043351:00230000
#0433b1:0000000013230000
#0463b1:1323000000000000
#046381:0000000013230000
#046351:0000000000001323
#0473b1:13
#047381:00230000
#047321:0000000013230000
#0483b1:0000000013230000
#048350:0000000000132300
#048381:0000000000001323
#048320:0000000000000013
#049320:23
#049381:13
#0493b1:00230000
#053351:13
#053321:00230000
#055321:1323000000000000
#055351:0000132300000000
#055381:0000000013230000
#0553b1:0000000000001323
#0573b1:1333
#057371:00000000000000530000000000000053
#0583b1:3333
#058371:00000000000000530000000000000053
#0593b1:23
#059320:1333
#059360:00000000000000530000000000000053
#060320:3333
#060360:00000000000000530000000000000053
#061320:23
#0613b1:1333
#061371:00000000000000530000000000000053
#0623b1:23
#062320:1333
#062360:00000000000000530000000000000053
#063320:23
#0633b1:1333
#063371:00000000000000530000000000000053
#0643b1:23
#064320:1333
#064360:00000000000000530000000000000053
#065320:23
#067380:13
#0673b0:0000002300000000
#0673b0:0013
#067380:0000000000000023
#0773b0:13
#077370:00230000
#077370:0000001300000000
#0773b0:0000000000230000
#0793b0:13
#079370:00230000
#080320:13
#080360:0000332300000000
#081320:13
#081360:00230000
#083320:13
#083360:00230000
#0843b0:13
#084370:00230000
#084370:0000001300000000
#0843b0:0000000000230000
#085320:13
#085360:00230000
#085360:0000001300000000
#085320:0000000000230000
#087320:13
#087360:00230000
#0883b0:13
#088370:0000332300000000
#0893b0:13
#089370:00230000
#090320:13
#090360:0000002300000000
#0429b0:00132300
#042990:00000000005300530000000000000000
#042970:0000005300000000
#044920:000000000000000000000000000000000000000000000000000000000000000000000000000000000000000000000000001300000000000000000000000000000000000000000000000000000000000000000000000000000000000000000000230000000000000000000000000000000000000000000000000000000000000000000000000000000000000000000000000000000000000000000000000000000000000000000000000000000000000000000000000000000000000000000000
#044960:0000005300000000
#044971:0013
#044991:00000000000000000053000000000000
#0449b1:0000000000230000
#044961:00000013
#044941:00000000000000000000000000530000
#044921:0000000000000023
#046921:00132300
#046941:00000000005300530000000000000000
#046961:0000005300000000
#049951:00130000
#049921:00000000000000000000000000000000000000230000000000000000000000000000000000000000000000000000000000000000000000000000000000000000
#049981:00000000000000130000000000000000
#0499b1:00000000000000000000000000000000000000000000000000000000000000230000000000000000000000000000000000000000000000000000000000000000
#049951:0000000000130000
#049921:00000000000000000000000000000000000000000000000000000000000000000000000000000000000000230000000000000000000000000000000000000000
#049981:00000000000000000000000000130000
#0499b1:00000000000000000000000000000000000000000000000000000000000000000000000000000000000000000000000000000000000000230000000000000000
#050981:00130000
#0509b1:00000000000000000000000000000000000000230000000000000000000000000000000000000000000000000000000000000000000000000000000000000000
#050951:00000000000000130000000000000000
#050921:00000000000000000000000000000000000000000000000000000000000000230000000000000000000000000000000000000000000000000000000000000000
#050981:0000000000130000
#0509b1:00000000000000000000000000000000000000000000000000000000000000000000000000000000000000230000000000000000000000000000000000000000
#050951:00000000000000000000000000130000
#050921:00000000000000000000000000000000000000000000000000000000000000000000000000000000000000000000000000000000000000230000000000000000
#0539b1:00130000
#053981:00000000000000000000000000000000000000230000000000000000000000000000000000000000000000000000000000000000000000000000000000000000
#053921:00000000000000130000000000000000
#053951:00000000000000000000000000000000000000000000000000000000000000230000000000000000000000000000000000000000000000000000000000000000
#0539b1:0000000000130000
#053981:00000000000000000000000000000000000000000000000000000000000000000000000000000000000000230000000000000000000000000000000000000000
#053921:00000000000000000000000000130000
#053951:00000000000000000000000000000000000000000000000000000000000000000000000000000000000000000000000000000000000000230000000000000000
#054921:00130000
#054951:00000000000000000000000000000000000000230000000000000000000000000000000000000000000000000000000000000000000000000000000000000000
#0549b1:00000000000000130000000000000000
#054981:00000000000000000000000000000000000000000000000000000000000000230000000000000000000000000000000000000000000000000000000000000000
#054921:0000000000130000
#054951:00000000000000000000000000000000000000000000000000000000000000000000000000000000000000230000000000000000000000000000000000000000
#0549b1:00000000000000000000000000130000
#054981:00000000000000000000000000000000000000000000000000000000000000000000000000000000000000000000000000000000000000230000000000000000
#068981:0013
#0689b1:0000000000230000
#068951:00000013
#068921:0000000000000023
