This file was generated by Ched 2.7.0.0.
#TITLE ""
#ARTIST ""
#DESIGNER ""
#DIFFICULTY 0
#PLAYLEVEL
#SONGID ""
#WAVE ""
#WAVEOFFSET 0
#JACKET ""
#REQUEST "ticks_per_beat 480"
#00002: 4
#BPM01: 180
#00008: 01
#TIL00: ""
#VOLUME: ""
#HISPEED 00
#MEASUREHS 00
#00915:00130000
#00918:0000001300000000
#0091b:13
#00910:41
#01418:00130000
#01415:0000001300000000
#0141b:0013
#0461b:13
#04612:00130000
#04618:00001313
#04615:0000000000130013
#00714:0014001400000000
#00718:24242400
#0071a:00000000000000000034343434343434
#01018:00130000
#01012:0013
#01112:13
#0111b:13
#01118:00130000
#01115:0000001300000000
#0151b:13
#01518:00130000
#01515:0000001300000000
#01512:13
#01915:0000130000130000
#01918:0000001300001300
#01912:0000000000000013
#0191b:23
#02018:00000013
#02015:0000000000000013
#0211b:1300000000000013
#02115:00130000
#02118:0000001300130000
#02112:0000000000130000
#02110:41
#02212:0000001300000000
#02218:0000000000000013
#02315:1300001300000000
#0231b:00130000
#02318:0000000000130013
#02312:00000013
#02518:00001313
#02515:0000000000130013
#02512:24240000
#02615:00001313
#02618:0000000000130013
#0261a:24240000
#02712:13130000
#02718:0013001300000000
#02715:00001313
#0271b:0000000000130013
#02918:00001313
#02915:0000000000130013
#02912:24240000
#03015:00001313
#03018:0000000000130013
#0301a:24240000
#03112:1313
#03118:0013000000130000
#03115:00130013
#0311b:0000001300000013
#0321b:00000013
#03215:0000000000000013
#03214:24
#03218:0024000000000000
#03213:00240000
#03219:0000002400000000
#03212:0024
#03315:0000000000130000
#03318:13
#0331b:0000000000000013
#03310:41
#03415:0000000000000013
#03418:0000001300000000
#03518:1300001300001300
#03512:00130000
#03515:0000000000130013
#03712:0000001300000000
#03718:1300000024000024
#03714:00000000000000000000002400000000
#03812:13
#03818:0000130000130013
#03815:0000001300001300
#04115:00001313
#04118:2300000000230013
#04212:14
#0421a:00140000
#04215:00001313
#04218:0000000000130013
#04318:00001313
#04315:2300000000130013
#05015:13
#05018:0013000000000000
#05014:0000140000540000
#05012:00000000000000540000000000540000
#0511b:13
#05115:0013000000000000
#05118:00130000
#05112:0000001300001400
#0511a:0014
#05218:1323
#05215:0013000000130000
#0521b:00130023
#05212:0000001300000013
#05612:0013000000002400
#05615:0000001300000000
#0561a:00000024
#05618:2323
#0561b:00230000
#05714:14
#0571a:14
#05712:0024
#05710:41
#05814:14
#0581a:14
#05812:0024
#05918:14
#05912:14
#0591a:0024
#06018:14
#06012:14
#0601a:0024
#06912:13
#0691b:0013
#06918:24240000
#06914:00002424
#07012:13
#0701b:0013
#07018:24240000
#07014:00002424
#07115:0013001300000000
#07118:23232300
#0711a:00000000000000000033333333333333
#07316:14
#09012:0000001300000013
#09015:0000000000130000
#09018:1323
#0901b:00000023
#0021a:14
#00412:14
#01215:00130000
#0121b:0013
#01315:00130000
#01318:0000001300000000
#01312:24
#0131a:24
#01712:13
#02818:00001313
#02815:0033003300130000
#0361b:0000001300000000
#03614:0000000024000024
#03618:00000000000000000000002400000000
#03912:13130000
#0391b:0013001300000000
#03915:0023
#03913:00000000000000000033333333333333
#04512:2414
#04516:00000024000000000000000000000000
#0451a:0000002400000000
#04510:41
#04918:0000140000540000
#04912:24
#0491a:24000000000000540000000000540000
#05418:1300240000640000
#05415:0013000000000000
#0541a:00000000000000640000000000640000
#06112:14
#0611a:14
#06114:0024
#06212:14
#0621a:14
#06214:0024
#0631a:14
#06312:14
#06318:0024
#0641a:14
#06412:14
#06418:0024
#06514:14
#0651f:11
#0651a:24242424
#0661a:14
#06614:24242424
#06714:14
#06718:24242424
#06818:14
#06812:24242424
#07715:2300001300001300
#07718:0000000000130013
#0771b:00230000
#0771f:21
#0791b:0000001300000000
#07915:13
#07914:0000000024000024
#07918:00000000000000000000002400000000
#08018:0000001300001300
#08015:0000230000130023
#0801b:23
#07812:0000001300000000
#07818:0000000024000024
#07814:00000000000000000000002400000000
#07810:41
#0811b:13
#08115:0000000000130000
#08118:0000000000000013
#08212:00000013
#08218:0000000000000013
#08318:0000000000130000
#08315:13
#08312:0000000000000013
#08418:0000000000000013
#08415:0000001300000000
#08515:2300001300001300
#08518:0000000000130013
#0851b:00230000
#08712:0000001300000024
#08718:13
#0871a:0024
#08716:00000000000000000000002400000000
#08818:0000001300001300
#08815:0000230000130023
#0881b:23
#08615:0000001300000000
#0861a:0024
#08616:00000000000000000000002400000000
#08612:0000000000000024
#08915:0000001300000023
#08912:0000000000130000
#08918:00000013
#0891b:1323
#05515:13
#05512:00333300
#07212:00000024
#0721a:00000024
#0741a:00000024
#07412:00000024
#09118:23
#00118:24
#00314:24
#00812:00000024
#0081a:00000024
#01618:00240000
#01614:0024
#0161a:00000024
#01612:24
#04012:00000024
#0401a:00000024
#0441b:23
#04718:23
#04812:00000024
#0481a:00000024
#05312:24000000000000640000000000640000
#0531a:24
#05314:0000240000640000
#07516:24000000000000000000002400000000
#07512:0024
#0751a:0000000000000024
#07614:0024000000000000
#07618:00240000
#07612:0024
#07616:00000000000000000000002400000000
#0761a:0000000000000024
#01816:00000024
#0051a:24242424
#00612:24242424
#00158:54
#00354:54
#00852:00000014
#0085a:14000014
#02252:0000006300000000
#02358:0000000000000053
#0245b:0013
#03252:0014
#03555:0000000000000053
#04052:13000014
#0405a:00000014
#04158:63
#04355:53
#04758:63
#0515a:0014
#05152:00000014
#0565a:00000014
#05652:00000014
#07158:0053
#0725b:13
#07252:00000014
#0725a:00000014
#07452:00000014
#0745a:00000014
#00758:0054
#0025a:24
#00452:24
#01052:0053
#0125b:0053
#0145b:0053
#01752:63
#01856:00000014
#01952:0000000000000053
#0215b:0000000000000053
#03358:53
#0335b:0000000000000053
#03458:0000005300000000
#03758:53
#03955:0063
#04552:0054
#07758:0000000000000063
#07955:63
#0815b:53
#08158:0000000000000053
#08558:0000000000000063
#08355:63
#08352:0000000000000063
#08455:0000006300000000
#08758:63
#09058:53
#09158:13
#0485a:14
#05555:53
#0895b:53
#001380:14
#0023a0:34
#003380:24
#003341:14
#004321:34
#005341:24
#007381:0014
#0073a1:00000000000000000034343434343434
#0083a1:24
#009351:0000000013000033
#009321:00000000000000000000003300000000
#010351:23
#010321:0013
#010351:00000023
#011381:0000000013000033
#0113b1:00000000000000000000003300000000
#012381:23
#0123b1:0013
#012381:00000023
#013321:0000000013000033
#013351:00000000000000000000003300000000
#014321:23
#0143b1:0013
#014381:00000023
#0153b1:0000000013000033
#015381:00000000000000000000003300000000
#0163b1:23
#017321:13
#018361:34000024
#019321:0000000000000013
#020351:0023
#0213b1:0000000000000013
#022381:00230000
#022321:0000001300000000
#022351:00000023
#023381:0000000000000013
#0243b1:0023
#028351:1333003323000000
#028321:00330000
#033381:13
#0333b1:0000332300000000
#0333b1:0000000000000013
#034381:0000333300000000
#0343b1:00000023
#035351:0000000000000013
#036321:00230000
#037381:13
#0373b1:00230000
#039351:0013
#039331:00000000000000000033333333333333
#040321:23
#041381:13
#0413b1:00230000
#043351:13
#043321:00230000
#0443b1:1333
#044381:00330023
#045321:0014
#045361:00000024
#047381:13
#0483a1:24
#055351:13
#055321:00333323
#071381:0013
#0713a1:00000000000000000033333333333333
#0723b1:23
#077381:0000000000000013
#0783b1:00230000
#079351:13
#079321:00230000
#0813b1:13
#081381:0000332300000000
#081381:0000000000000013
#0823b1:0023
#083351:13
#083321:0000332300000000
#083321:0000000000000013
#084351:0000333300000000
#084321:00000023
#085381:0000000000000013
#0863b1:00230000
#087381:13
#0873b1:00230000
#0893b1:13
#089381:00230000
#090381:13
#0903b1:00230000
#049980:0000140000540000
#0499a0:00000000000000540000000000240000
#050940:0000140000540000
#050920:00000000000000540000000000240000
#053940:0000140000540000
#053920:00000000000000540000000000240000
#054980:0000140000540000
#0549a0:00000000000000540000000000240000
