This file was generated by Ched 2.7.0.0.
#TITLE ""
#ARTIST ""
#DESIGNER ""
#DIFFICULTY 0
#PLAYLEVEL
#SONGID ""
#WAVE ""
#WAVEOFFSET 0
#JACKET ""
#REQUEST "ticks_per_beat 480"
#00002: 4
#BPM01: 180
#00008: 01
#TIL00: ""
#VOLUME: ""
#HISPEED 00
#MEASUREHS 00
#00912:13132600
#0091b:13000000000013000000000000130000
#00918:0000000000130000
#00916:0000001300000028
#00914:00000000000000000000002700000000
#00910:41
#0071a:14000000240000000014000000000000
#00712:24142400
#00713:0000000000140000
#00719:00000000000000000000001400000000
#00718:00000000000014000000000000140000
#00715:0000000000000014
#00717:00000000000000000000000000000014
#00714:0014000000002400
#01012:13130000
#01019:0013001300130000
#01017:00130013
#0101b:1313
#01016:0013
#01014:0000000000000013
#0171c:12
#01817:12
#01812:0000000000162600
#01818:00000026
#0191a:0012120000121200
#01912:1300001300130000
#01918:2212
#01916:00000013
#02416:00000000000000000000000000120000
#02415:13130000
#0241a:0014
#02418:0000001300001212
#02419:0000000000130000
#02414:0000000000130000
#02412:0013000014000000
#0241b:13130000
#0271b:1313001313130000
#02718:00130000
#02715:00000000001300000000000000000000
#02712:0000001300001313
#0331b:1300001300000013
#03317:0000000000130000
#03312:14141414
#03310:41
#03418:0000000000000013
#03412:14141414
#03417:0000001300000000
#0351a:14141414
#03516:1300000000000013
#03512:0000001300001300
#03712:00001313
#03717:0000001300000000
#03715:00000000000000000000001300000000
#03716:1300000000000014
#0371a:24242424
#05015:0000000000000000000000000000000016000000000000000000000000000000005400000000000000000000000000000000000000000000005400000000000000000000000000000000000000000000005400000000000000000000000000000000000000000000005400000000000000000000000000000000000000000000
#05012:1400000000000000005400000000005400000000005400000000005400000000
#0501a:14000000240000240000240000240000
#05016:00000000140000140000140000140000
#05014:00000000000000000000000000000000005400000000000000000000005400000000000000000000005400000000000000000000005400000000000000000000
#05013:0000000000000000000000000000000000000000000000000000000000000000000000540000000000000000000000000000000000000000000000540000000000000000000000000000000000000000000000540000000000000000000000000000000000000000000000540000000000000000000000000000000000000000
#05112:140000130000000000130000130000000000005300000000
#05115:00160000
#0511b:000000130000000000130000005300000000130000000000
#05117:000000000000000000000000130000000000005300000000
#05116:000000000000000000000000005300000000130000000000
#0511a:14
#05114:000000000000000000000000000000000000000000000000005300000000000000000000005300000000000000000000
#05119:000000000000000000000000000000000000000000000000005300000000000000000000005300000000000000000000
#05215:0000000013000000000000000000000000000063006300000000000000000000
#05212:13132363
#05216:0000001400630000
#05218:0000000000001300000000000000000000000000000000000000006300630000
#0521b:13132323
#05213:0000000000000000000000000000000000630000000000630000000000000000
#05214:00000000000000000063006300000000
#0521a:0000000000000000000000000000000000000000000000000063000000000063
#05219:00000000000000000000000000630063
#05217:0000000000000063
#06516:00001313
#06512:1300130000130000
#0651f:11
#0651a:24242424
#00112:0012
#00116:12
#00118:22
#0031c:0012
#00312:00000012
#00316:22
#0041a:0014
#00412:3200000000140000
#00418:1200000000001212
#00416:00000000000000000000000000120000
#00212:0012
#00216:12
#0021c:12
#00518:0000001200000012
#00516:00000000000000000000120000000012
#0051a:14141414
#00512:24242424
#00616:0000001200000012
#00618:00000000000000000000120000000012
#00612:14141414
#0061a:24242424
#00818:0000000000000013
#00815:00000000000000000000000000000013
#00812:00000024
#0081a:00000024
#00816:24
#01316:530000000000000000001200000000000000000000280000
#01318:000000000000000000000012000000130000000000000000
#0131b:23000000000000000000000000130000
#01312:0026
#01314:00000000000000000000002700000000
#02516:0000000000140014
#02512:2414241414001300
#02517:0013001300000000
#0251b:13130013
#02615:0000000000000013
#02618:00000000000000000000000000000013
#02616:0013001300140000
#0261b:00000013
#0261a:2414241414000000
#02612:13130013
#0281b:1313
#02818:0013001300130013
#02812:13130013
#02815:0013001300130013
#03114:0013001300000000
#03119:0000000000130013
#03112:13130000
#0311b:00001313
#0301b:00001313
#03015:00000000000013000000130000000013
#03012:13001313
#03018:00000000000000130000000000001300
#03016:0013000000000000
#0301a:2414240000000000
#03218:0000002300001212
#03216:24000000000000000000000000120000
#03212:000000002c140000
#0321a:0023000000140000
#0321b:23
#03214:00240000
#03219:00230000
#0361a:14000000140000000000002400000000
#03615:0000001300000000
#03618:00000000000000130000000000000000
#0361b:0013
#03616:00000000000000000000001300000000
#03617:0000000000000013
#03612:0000000024000024
#03816:0000001300000014
#0381a:0000000000140000
#03818:00000014
#03817:13
#03812:24242424
#03916:0014001400000000
#03912:14000000240000000014000000000000
#0391a:24142400
#03919:0000000000140000
#03913:00000000000000000000001400000000
#03914:00000000000000000000000000140000
#03917:0000000000000014
#03915:00000000000000000000000000000014
#03918:00000024
#04112:13130014
#04115:00000000001300000000000000001300
#04118:00000000000013000000000000000013
#0411b:00000000000000130000000000000000
#04116:24000014
#0411a:0000000000240000
#04315:0000000000000000000000001300000000000000000000000000005300530000
#04312:00000000000000130000130013000000
#04316:24000000000000000000001400005300
#04318:00000000001300000000000000000000
#0431b:13131300
#04313:0000000000000000000000000000000000000000000000000053000000000053
#04314:00000000000000000000000000530053
#04512:2300002300001300
#0451b:00000023000000000000000013000000
#04518:0000000000000012
#04516:14000014000014000000000000000012
#04510:41
#04818:0000001300000000
#04815:00000000000000130000000000000000
#04812:24241300
#0481a:00240000
#04816:0024000000000000
#0481b:53
#0561a:14240024
#05612:24142c24
#05616:0014001400000024
#06612:1300130000130000
#06616:00001313
#0661a:24242424
#07317:12
#0751a:1400000024000024
#07516:00000000000000001400001400001400
#07512:24000000000000000000002400000000
#01612:2300001300131300
#01618:0013000000000000
#01616:0013
#0161b:2300230013000013
#01615:00230000
#0111b:00130000
#01112:13000000000013000000000000132800
#01115:00000000000000000000132700000000
#01117:0000001300000000
#01118:0026
#01216:0013000000130000
#01212:1300000013000013
#0121b:13130013
#01217:0000001300000053
#0121a:0000000000000000000000000000000000000000000000000053000000000000
#01219:00000000000000000000000000530000
#01218:0000000000000000000000000000000000000000000000000000005300000000
#01213:0000000000000000000000000000000000000000000000000000000000530000
#01214:00000000000000000000000000000053
#01215:0000000000000000000000000000000000000000000000000000000000000053
#01412:13130000
#01419:0013001300130000
#01417:00130013
#0141b:1313
#01416:0013
#01414:0000000000000013
#0151b:00130000
#01512:13000000000013000000000000132800
#01515:00000000000000000000132700000000
#01517:0000001300000000
#01518:0026
#02917:0013001300000000
#0291b:13130013
#02916:0000000000140014
#02912:2414241414001300
#0421b:1300130013000023
#04218:0000000000000000000013000000000000000053000000000000000000000000
#04215:0000000000000000000000001300000000000000000000000000005300000000
#04212:00001300000000130000230013000000
#04216:0026000000000053
#0421a:0000000000000000000000000000000000530000000000000000000000000000
#04219:00000000000000000053000000000000
#04217:0000000000530000
#04213:0000000000000000000000000000000000000000000000000053000000000000
#04214:00000000000000000000000000530000
#04412:53000000230000001313000000000000
#04415:00000000000000000000290013130000
#0441b:2300002300000000
#04416:0023006300000000
#04418:0000000000000026
#04414:00000000006300000000000000000000
#04419:00000000000000630000000000000000
#04417:0063
#0541a:1400000000000000006300000000006300000000006300000000006300000000
#05415:0016000000000000
#05412:14000000240000240000240000240000
#05416:00000000230000230000230000230000
#05417:0000000000000000000000000000000000000000000000000000000000000000006300000000000000000000000000000000000000000000006300000000000000000000000000000000000000000000006300000000000000000000000000000000000000000000006300000000000000000000000000000000000000000000
#05418:00000000000000000000000000000000006300000000000000000000006300000000000000000000006300000000000000000000006300000000000000000000
#05419:0000000000000000000000000000000000000000000000000000000000000000000000630000000000000000000000000000000000000000000000630000000000000000000000000000000000000000000000630000000000000000000000000000000000000000000000630000000000000000000000000000000000000000
#0541b:0000000000000000000000000000000000000000000000000000000000000000000000000063000000000000000000000000000000000000000000000063000000000000000000000000000000000000000000000063000000000000000000000000000000000000000000000063000000000000000000000000000000000000
#05516:0014001400000000
#05512:140014000000001c
#05515:0016
#05513:0000001a
#05514:0000000000180000
#0551a:14140000
#07815:00000000000000000000132600000000
#07812:54140014001400140000000000132600
#07816:0014001400000000
#07818:0026
#0781a:24240000
#07810:41
#0791b:00000000000000000000000000130000
#07918:00000000000000140000130000002600
#07915:00140000000014000000002600000000
#07913:0014000000000000
#07916:00000014000000000000000000000000
#07917:00000000001400000000000000000000
#07912:2426
#07914:00240000
#0901a:00140000000000000000000000000000
#09014:00001400000000002818181800000000
#09018:00000014000000000000000000000000
#09016:00000000241414140000000000000000
#09012:2400000000000000000000002c1c1c1c
#0231b:00130013
#02318:0000000000000013
#02317:13
#02312:1300000000280000
#02316:0000002800000000
#05712:1414
#0571a:1414
#05710:41
#0581a:1414
#05812:0014
#05912:1414
#0591a:0014
#06016:0014000000000000
#0601a:00141400
#06012:00141400
#0611a:1414
#06112:1414
#06212:1414
#0621a:0014
#0631a:1414
#06312:0014
#06416:0014000000000000
#0641a:00141424
#06412:00141424
#06717:00001313
#0671b:1300130000130000
#06712:24242424
#0681b:13130000
#06817:0013000000000000
#06812:24241300
#06816:00001414
#07112:14000000240000000014000000000000
#0711a:24142400
#07118:0014000000002400
#07114:00000000000014000000000000140000
#07119:0000000000140000
#07113:00000000000000000000001400000000
#07117:0000000000000014
#07115:00000000000000000000000000000014
#06916:0000001200000012
#06918:00000000000000000000120000000012
#06912:00141414
#0691a:24242424
#07018:0000001200000012
#07016:00000000000000000000120000000012
#0701a:14141414
#07012:24242424
#07712:2600130026000024
#07716:00000000000014000000002400540054
#0771b:0013
#0771a:0000000000141454
#07718:2600000000000000260000000000000000000000000000000054005400000000
#0771f:21
#07714:0000000000000000000000000000000000000000000000000000000000540054
#08014:00000000000000140000140014000000
#08012:0000000000000016
#08017:00140000000014000000000000000000
#08019:0014000000000000
#08016:00000014000000000000000000000000
#08015:00000000001400000000000000000000
#08018:00000000240000002600002600002600
#0801a:24
#08115:00001600000016000000002900000000
#0811b:0000000000130000
#08112:26000000160000002600000000132900
#08118:16261600
#0851b:00130000
#08516:00001400000014000000002400540054
#08512:1300260013141454
#08518:2600000000000000000000000000000026000000000000000000000000540054
#0851a:0000000000000024
#08514:0000000000000000000000000000000000000000000000000054005400000000
#08216:0000000000000014
#08215:13535300
#08218:23242526
#08214:005300000000000000000000000000000000000000000000005300000000000000000000000000000000000000000000005300000000000000000000000000000000000000000000000000000000000000000000000000000000000000000000
#08213:005300000000000000000000005300000000000000000000005300000000000000000000000000000000000000000000
#08212:0053000000000000005300000000000000530000000000000000000000000000
#08312:00000000000014001400142800000000
#08316:24000000240000002800000000142800
#0831a:0014000000000000
#0841a:0000001414140000
#08416:24000000240000000000002800140000
#08412:0014000028000028
#04718:0000000000000000000000001300000000000000000000000000005300530000
#0471b:00000000000000130000130013000000
#04716:24000000000000000000001400000000
#04715:00000000001300000000000000000000
#04712:13131300
#0471a:0000000000000000000000000000000000000000000000000053000000000053
#04719:00000000000000000000000000530053
#04717:0000000000000053
#04612:1300130013000023
#04615:0000000000000000000013000000000000000053000000000000000000000000
#04618:0000000000000000000000001300000000000000000000000000005300000000
#0461b:00001300000000130000230013000000
#04614:00002600000000000053000000000000
#04613:0000000000000000000000000000000000530000000000000000000000000000
#04616:0000000000530000
#0461a:0000000000000000000000000000000000000000000000000053000000000000
#04619:00000000000000000000000000530000
#04617:0000000000000053
#02012:1400001212000000
#0201a:0000140000000012
#02018:12
#0201c:0012000000001200
#02014:0000000000120000
#02016:00000014
#08915:0016001600000000
#08912:16000000260000001600132600000000
#0891b:00000000000000000000000000130000
#08918:2600160026000026
#08818:00000014000000000000140014001600
#08817:00140000000014000000000000000000
#08815:0014000000000000
#08819:00000000001400000000000000000000
#0881a:00000000000000140000000000000000
#08812:00000000000000002600002600002600
#08814:24
#08816:00240000
#08618:0000000000130026
#0861b:00000000000000000000000000130000
#0861a:54140014001400140000000000000000
#08616:0014001400000000
#08612:24242600
#08615:00000000000000000000002600000000
#08712:00000000000000140000000000132600
#08715:00140000000014000000132600000000
#08717:0014000000000000
#08714:00000014000000000000000000000000
#08713:00000000001400000000000000000000
#08718:2426
#08716:00240000
#02114:0012120000121200
#0211b:1300001300130000
#02116:1212
#02117:00000013
#02110:41
#0221a:1400000000120000
#02212:0012140000001200
#02216:12000014
#0221c:0000001212000000
#02214:0000000000000012
#04916:00000000140000140000140000140000
#04912:00000000240000240000240000240000
#0491a:2400000000000000005400000000005400000000005400000000005400000000
#04917:0000000000000000000000000000000000000000000000000000000000000000005400000000000000000000000000000000000000000000005400000000000000000000000000000000000000000000005400000000000000000000000000000000000000000000005400000000000000000000000000000000000000000000
#04918:00000000000000000000000000000000005400000000000000000000005400000000000000000000005400000000000000000000005400000000000000000000
#04919:0000000000000000000000000000000000000000000000000000000000000000000000540000000000000000000000000000000000000000000000540000000000000000000000000000000000000000000000540000000000000000000000000000000000000000000000540000000000000000000000000000000000000000
#07212:00000024
#0721a:00000024
#07216:24
#09116:24
#04012:2c000025
#04019:00000025
#07412:0000002c
#07612:0024240000000026
#0761a:0024240000000000
#07616:0024
#07614:00000000000000000000002800000000
#07618:0000000000000026
#0531a:00000000240000240000240000240000
#05312:2300000000000000000000000000000000000000000000000000000000000000000000000063000000000000000000000000000000000000000000000063000000000000000000000000000000000000000000000063000000000000000000000000000000000000000000000063000000000000000000000000000000000000
#05317:00000000230000230000230000230000
#0531b:63
#05316:0000000000000000000000000000000000000000000000000000000000000000006300000000000000000000000000000000000000000000006300000000000000000000000000000000000000000000006300000000000000000000000000000000000000000000006300000000000000000000000000000000000000000000
#05315:00000000000000000000000000000000006300000000000000000000006300000000000000000000006300000000000000000000006300000000000000000000
#05314:0000000000000000000000000000000000000000000000000000000000000000000000630000000000000000000000000000000000000000000000630000000000000000000000000000000000000000000000630000000000000000000000000000000000000000000000630000000000000000000000000000000000000000
#05313:0000000000000000006300000000006300000000006300000000006300000000
#00158:52
#00852:00000014
#0085a:00000014
#00856:14
#0175c:52
#01857:52
#01852:00000036
#01858:00000046
#03556:6300000000000063
#03552:0000005300000000
#0355a:44444444
#04052:1c000015
#04059:00000015
#07252:00000014
#0725a:00000014
#07256:14
#00356:52
#00352:00000022
#0095b:53
#00952:0036
#00954:00000000000000000000003700000000
#00956:0000000000000038
#01952:63
#01956:00000013
#0195a:00000012
#0245a:0014
#02452:0014
#0285b:5353
#02858:0023000000230000
#02852:00630000
#02855:0000002300000000
#0335b:5300000000000063
#03352:34343434
#03457:0000006300000000
#03452:34343434
#03652:0000000014000014
#0365a:44000000440000000000001400000000
#04552:13000013001c0000
#0455b:00000013000000000000000000000000
#07452:0000001c
#08258:43444546
#08252:0063000000000000006300000000000000630000000000000000000000000000
#00452:0000000000140000
#0045a:0014
#01056:0053
#01057:00000063
#01152:6300000000000048
#01158:0046
#01155:00000000000000000000004700000000
#01256:0023000000230000
#01252:53335333
#01257:0000002300000000
#0125b:00634300
#01352:0036
#01354:00000000000000000000003700000000
#01356:0000000000000038
#0135b:13
#01456:0053
#01457:00000063
#01552:6300000000000048
#01558:0046
#01555:00000000000000000000004700000000
#02356:0000001800000000
#02352:6300000000180000
#02557:0023002300000000
#0255b:63630000
#02656:0023002300000000
#02652:53530000
#02957:0023002300000000
#0295b:63630000
#03056:0023000000000000
#03052:53
#03256:34
#03254:00340000
#03252:003c
#0375a:44444444
#03756:53
#03852:34343434
#03857:63
#0395a:14
#03952:00140000
#0415a:0000000000140000
#04156:0000000000140000
#04252:0053000000130000
#0425b:0000000000000013
#04256:0046000000000000
#0445b:0013000000000000
#04456:0013000000000000
#04455:0000000000490000
#04458:0000000000000046
#0535a:00000000440000440000440000440000
#07552:34000000000000000000003400000000
#0755a:0000000044000044
#07652:0034340000000036
#0765a:0044440000000000
#07656:0014
#07654:00000000000000000000001800000000
#07658:0000000000000046
#07858:0046
#07855:00000000000000000000004600000000
#07852:0000000000000046
#07958:0000000000000036
#07955:00000000000000000000003600000000
#07952:0036
#09156:14
#0065a:14141414
#0025c:22
#0165b:0053
#01652:00000053
#04356:64
#0435b:0053
#04952:00000000340000340000340000340000
#05752:5454
#0575a:1454
#0585a:5454
#05852:0054
#05952:6454
#0595a:0054
#06052:00005414
#0605a:00005414
#0615a:6464
#06152:1464
#06252:6464
#0625a:0064
#0635a:5464
#06352:0064
#06452:00006414
#0645a:00006414
#06856:00005454
#06852:34340000
#00552:14141414
#05556:0014001400000000
#05554:0000000000180000
#05552:000000000000001c
#0655a:44444444
#0665a:44444444
#06752:34343434
#0695a:44444444
#07052:34343434
#07758:46460000
#07752:3636
#08152:1616
#08158:00160000
#08552:00360000
#08558:4646
#08356:0000000048000048
#08352:00000000000000000000004800000000
#08452:0000000038000038
#08456:00000000000000000000003800000000
#0465b:0063000000130000
#04652:0000000000000013
#04654:0036000000000000
#04756:54
#04752:0053
#05656:0014001400000000
#02052:54
#0205a:00540000
#08058:0016
#08952:00160000
#08958:1616
#08652:0036
#08655:00000000000000000000003600000000
#08658:0000000000000036
#08752:0000000000000046
#08755:00000000000000000000004600000000
#08758:0046
#08852:0016
#0215b:53
#02157:00000013
#02154:00000012
#0225a:64
#02252:00640000
#0275b:0013
#02752:00000013
#0505a:00000000440000440000440000440000
#05452:00000000340000340000340000340000
#001380:12
#0023c0:32
#003380:22
#003361:12
#003321:00000052
#004321:32
#004361:0022
#0093b1:13
#009371:00230000
#010361:0013
#010321:00000023
#010370:00000013
#0113b0:23
#011321:13
#011361:00230000
#012321:13230000
#012361:0053000000000000
#0123b0:00132300
#012370:0000005300000000
#012321:00001323
#012361:0000000000530000
#014361:0013
#014321:00000023
#014370:00000013
#0153b0:23
#015321:13
#015361:00230000
#0163b1:0013
#016371:00000023
#016320:00000013
#017360:23
#0173c1:12
#018371:32
#018381:0000000000362600
#019321:13
#019361:00230000
#020321:14
#020361:00240000
#0203a0:00140000
#020360:0024
#0213b0:13
#021370:00230000
#0223a0:14
#022360:00240000
#022321:00140000
#022361:0024
#023321:13
#023361:00230000
#0253b1:13332300
#025371:0053005300000000
#026321:13332300
#026361:0053005300000000
#027321:1323000000000000
#027351:0000000013230000
#027381:0000000000001323
#0283b1:13230000
#028381:0033000000000000
#028320:00132300
#028350:0000003300000000
#0283b1:00001323
#028381:0000000000330000
#0293b1:13332300
#029371:0053005300000000
#030321:13230000
#030361:0033000000000000
#0313b1:13
#031371:0023000000000000
#031371:00130000
#0313b1:0000002300000000
#031321:0013
#031361:0000000000230000
#031361:00000013
#031321:0000000000000023
#0333b1:13
#033371:00230000
#0333b1:0000000000000013
#034371:00230000
#034371:0000001300000000
#0343b1:00000023
#035361:13
#035321:00230000
#035321:0000001300000000
#035361:0000000000230000
#035361:0000000000000013
#036321:00230000
#037361:13
#037321:00230000
#038371:13
#0383b1:00230000
#041361:14
#0413a1:00540000240000000000000000000000
#041321:0014
#041361:00000000000000000054240000000000
#042321:1333000000000000
#042361:00000054240000000000000000000000
#043361:14
#043321:00240000
#0433b1:0013
#043361:00000000000000000054240000000000
#0443b1:1323000000000000
#045321:000000001c2c0000
#0463b1:1333000000000000
#046361:00000054240000000000000000000000
#047361:14
#0473a1:00240000
#047321:0013
#047361:00000000000000000054240000000000
#0483b1:0000000013230000
#048350:0000000000132300
#048381:0000000000001323
#048320:0000000000000013
#049320:23
#057320:14
#0573a0:0034
#058320:24
#057321:0014
#0583a1:34
#058321:0034
#0593a1:24
#0583a0:0014
#059320:34
#0593a0:0034
#060320:24
#059321:0014
#0603a1:24
#060321:0014
#0603a1:00000024
#0603a0:0014
#060320:00000024
#0613a0:14
#061320:0034
#0623a0:24
#0613a1:0014
#062321:34
#0623a1:0034
#063321:24
#062320:0014
#0633a0:34
#063320:0034
#0643a0:24
#0633a1:0014
#064321:24
#0643a1:0014
#064321:00000024
#064320:0014
#0643a0:00000024
#068360:0014
#0683b0:00000023
#068361:00000014
#069321:23
#082321:0013000000000000000000000000000000000000000000000000000000000000
#082351:00230000
#082321:0000000000000000001300000000000000000000000000000000000000000000
#082351:0023
#082321:0000000000000000000000000000000000130000000000000000000000000000
#082351:00000023
#083321:14
#083361:00542400000000000000000000000000
#0833a1:00140000
#083361:00000000005424000000000000000000
#0843a1:14
#084361:00542400000000000000000000000000
#084321:00140000
#084361:00000000005424000000000000000000
#0129b0:00000013
#012970:0000000000000023
#012921:0000000000000013
#013961:23
#0429b1:0013
#042971:0000000000230000
#042921:00000013
#042961:0000000000000023
#043921:00000013
#043961:0000000000000053
#044921:23
#044921:00130000
#044941:00000000005300000000000000000000
#044961:0000002300000000
#0449b0:0000001300000000
#044990:00000000000000530000000000000000
#044970:0023
#046920:0013
#046960:0000000000230000
#0469b0:00000013
#046970:0000000000000023
#0479b0:00000013
#047970:0000000000000053
#0489b0:23
#051920:0013
#051960:000000000000000000000000002300000000000000000000
#051971:0013
#0519b1:000000000000000000000000002300000000000000000000
#0519b1:00000013
#051971:000000000000000000000000000000000000002300000000
#051960:00000013
#051920:000000000000000000000000000000000000002300000000
#052920:00001323
#052960:0000000000530000
#0529b1:00000013
#052971:0000000000000053
#0539b1:23
#0779a1:000000000000000000000000000000000000000000000000000000000000000000000000000000000000000000000000000000000000000000000000000000000000000000000000000000000000000000000000000000000000000000000000000000000000000000000000000000000000000000000000000000000000000000000000000000000000000000000000000000000000000000000000000000000000000000000000000000000000000000000000000000000000000000000000000000000000000000000000000000000000000000000000000000000000000000000000000000000000000000000000000000000000000000000000000000000000000000000000000000000000000000000000000000000000000000000000001400000000000000000000000000000000000000000000000000000000000000000000000000000000000000000000240000000000000000000000000000000000000000000000000000000000000000000000000000000000000000000000
#077961:00000000000000000000000000540000
#077921:000000000000000000000000000000000000000000000000000000000000000000000000000000000000000000000000000000000000000000000000000000000000000000000000000000000000000000000000000000000000000000000000000000000000000000000000000000000000000000000000000000000000000000000000000000000000000000000000000000000000000000000000000000000000000000000000000000000000000000000000000000000000000000000000000000000000000000000000000000000000000000000000000000000000000000000000000000000000000000000000000000000000000000000000000000000000000000000000000000000000000000000000000000000000000000000000000000000000000000000000000000000000000000000000000000000000000000000000000000000000000000000000001400000000000000000000000000000000000000000000000000000000000000000000000000000000000000000000
#077961:00000000000000000000000000000054
#078921:24
#085921:000000000000000000000000000000000000000000000000000000000000000000000000000000000000000000000000000000000000000000000000000000000000000000000000000000000000000000000000000000000000000000000000000000000000000000000000000000000000000000000000000000000000000000000000000000000000000000000000000000000000000000000000000000000000000000000000000000000000000000000000000000000000000000000000000000000000000000000000000000000000000000000000000000000000000000000000000000000000000000000000000000000000000000000000000000000000000000000000000000000000000000000000000000000000000000000000001400000000000000000000000000000000000000000000000000000000000000000000000000000000000000000000240000000000000000000000000000000000000000000000000000000000000000000000000000000000000000000000
#085961:00000000000000000000000000540000
#0859a1:000000000000000000000000000000000000000000000000000000000000000000000000000000000000000000000000000000000000000000000000000000000000000000000000000000000000000000000000000000000000000000000000000000000000000000000000000000000000000000000000000000000000000000000000000000000000000000000000000000000000000000000000000000000000000000000000000000000000000000000000000000000000000000000000000000000000000000000000000000000000000000000000000000000000000000000000000000000000000000000000000000000000000000000000000000000000000000000000000000000000000000000000000000000000000000000000000000000000000000000000000000000000000000000000000000000000000000000000000000000000000000000000001400000000000000000000000000000000000000000000000000000000000000000000000000000000000000000000
#085961:00000000000000000000000000000054
#0869a1:24
