This file was generated by Ched 2.7.0.0.
#TITLE ""
#ARTIST ""
#DESIGNER ""
#DIFFICULTY 0
#PLAYLEVEL
#SONGID ""
#WAVE ""
#WAVEOFFSET 0
#JACKET ""
#REQUEST "ticks_per_beat 480"
#00002: 4
#BPM01: 180
#00008: 01
#TIL00: ""
#VOLUME: ""
#HISPEED 00
#MEASUREHS 00
#0051a:14
#00514:0014
#00618:14
#00612:0014
#00912:2414
#00918:00140000
#00910:41
#01112:1414
#01118:00140000
#01312:14
#0131a:14
#01314:0014
#0141a:1414
#01414:00140000
#01512:1414
#01518:00140000
#03312:1414
#03318:00140000
#03310:41
#0341a:1414
#03414:00140000
#03518:00140000
#03512:1414
#03712:1414
#03718:00140000
#0381a:1414
#03814:00140000
#04114:0014
#0411a:24140000
#04218:14140000
#04212:0014
#0431a:14140000
#04314:0014
#04418:1414
#04414:00140014
#04612:14140000
#04618:0014
#0571a:14
#05714:0024
#05710:41
#0581a:14
#05814:0024
#06114:14
#0611a:0024
#06214:14
#0621a:0024
#06514:1414
#06518:00140000
#0651f:11
#06914:1414
#06918:00140014
#07012:1414
#0701a:00140014
#07714:14
#07712:0014
#0771a:00140000
#07718:00000014
#0771f:21
#08312:1414
#0831a:00140014
#08414:1414
#08418:00140000
#08518:1414
#08514:00140014
#0101a:1414
#01014:00140000
#01712:14
#01914:0014
#01918:24
#02318:0014
#02312:14
#02718:14
#02714:0014
#02818:14
#02814:0014
#03118:14
#03114:0014
#04714:14140000
#0471a:0014
#05918:14
#05912:0024
#06018:14
#06012:0024
#06312:14
#06318:0024
#06412:14
#06418:0024
#06618:1414
#06614:00140000
#06712:1414
#0671a:00140000
#0681a:1414
#06812:00140000
#0791a:1414
#07914:00140000
#08012:1414
#08018:00140000
#08712:1414
#08718:00140000
#0881a:1414
#08814:00140000
#02112:14
#02118:0014
#02110:41
#02214:14
#0221a:0014
#02514:0014
#0251a:24
#02612:0014
#02618:24
#02914:0014
#0291a:24
#03012:0014
#03018:24
#05612:14
#05614:0034343400000000
#0731a:24
#07312:24
#07512:24
#0751a:24
#0911a:24
#09112:24
#00118:24
#00314:24
#04518:24
#0451a:00000034000034000000000000000000
#04510:41
#0481a:24
#04812:24
#00718:24
#0071a:00003400340034003434343434343434
#0161a:24
#01618:00343400
#03218:24
#03914:24
#03912:00003400340034003434343434343434
#05514:24
#05512:00343434
#07114:24
#07112:00003400340034003434343434343434
#08914:24
#08114:00240000
#0811a:24
#08118:0024
#08112:00000024
#08218:24
#07810:41
#0255a:14
#02658:14
#04558:64
#0795a:0014
#08052:0014
#0885a:0014
#00758:54
#03954:64
#05554:64
#07154:64
#08954:64
#0295a:14
#03058:14
#05652:54
#0755a:14
#07552:14
#08752:0014
#001380:14
#0023a0:24
#003340:14
#004320:24
#007380:14
#0073a0:00003400340034003434343434343434
#0083a0:24
#0123a0:14
#012380:0024
#0163a0:14
#016380:00343424
#0203a0:1424
#024340:1424
#032380:1434343424000000
#036380:14
#0363a0:0024
#039340:14
#039320:00003400340034003434343434343434
#040320:24
#045380:14
#0453a0:00000034000034002400000000000000
#049380:14
#0493a0:0034
#050380:34
#0503a0:0024
#051340:14
#051320:0034
#052340:34
#052320:0024
#053380:14
#0533a0:0034
#054380:34
#0543a0:0024
#055340:14
#055320:00343434
#056320:34
#056340:0034343424000000
#071340:14
#071320:00003400340034003434343434343434
#072320:24
#078340:14
#078320:0024
#082380:14
#0823a0:0024
#0863a0:14
#086380:0024
#089340:14
#090320:0024
