This file was generated by Ched 2.7.0.0.
#TITLE ""
#ARTIST ""
#DESIGNER ""
#DIFFICULTY 0
#PLAYLEVEL
#SONGID ""
#WAVE ""
#WAVEOFFSET 0
#JACKET ""
#REQUEST "ticks_per_beat 480"
#00002: 4
#BPM01: 123
#00008: 01
#TIL00: ""
#VOLUME: ""
#HISPEED 00
#MEASUREHS 00
#01314:14
#05716:16
#06214:00240014
#06218:2424
#00714:14
#00818:14
#00912:14
#01714:14
#01914:14
#02012:0016
#02018:26
#02118:1616
#02212:16
#02218:0016
#02210:41
#02312:16
#02318:0016
#02418:0016
#02412:26
#02512:1616
#02618:16
#02612:0016
#02718:16
#02712:0016
#02818:16
#02816:0016
#03118:14
#03214:14
#0331a:14
#03012:14
#03010:41
#03412:14
#03512:14
#03612:14
#03610:41
#03712:14
#0381a:14
#0381f:11
#0391a:14
#0401a:14
#0411a:14
#04618:0016
#04612:26
#0461f:21
#04610:0041
#04712:1616
#04818:16
#04812:0016
#04918:16
#04912:0016
#05018:16
#05016:0016
#05212:16
#05214:0016
#05912:0014
#0601a:14
#06012:0014
#0611a:14
#06112:0014
#01818:14
#0061a:24
#00610:41
#05518:26
#01410:41
#02856:0026
#02858:56
#05058:56
#05056:0026
#05252:66
#05254:0026
#05756:26
#05558:56
#0023a0:14
#0033a0:24
#004320:14
#005320:24
#0103a0:14
#0123a0:24
#014380:14
#016380:24
#028380:16
#028360:0036
#029380:36362600
#042340:14
#043340:24
#044380:14
#045380:24
#050380:16
#050360:0036
#051380:36362600
#052320:16
#052340:0036
#053320:36362600
#055380:16
#057360:56
#059380:26
