This file was generated by Ched 2.7.0.0.
#TITLE ""
#ARTIST ""
#DESIGNER ""
#DIFFICULTY 0
#PLAYLEVEL
#SONGID ""
#WAVE ""
#WAVEOFFSET 0
#JACKET ""
#REQUEST "ticks_per_beat 480"
#00002: 4
#BPM01: 123
#00008: 01
#TIL00: "29'0:0.01, 29'480:0.01, 29'960:0.01, 29'240:1, 29'720:1, 29'1200:1, 55'2:1, 55'0:10000, 51'0:0.01, 51'480:0.01, 51'960:0.01, 51'240:1, 51'720:1, 51'1200:1, 53'0:0.01, 53'480:0.01, 53'960:0.01, 53'240:1, 53'720:1, 53'1200:1"
#VOLUME: ""
#HISPEED 00
#MEASUREHS 00
#06218:26002616
#06212:00261616
#0121b:00000013130000000000001313000000
#01217:00131313
#01212:1300001313000013
#01216:64
#02018:0000000000130000
#0201b:23000000000013000000001300000000
#02012:0000130000000013
#02015:00000000000000000000001300000000
#02019:0013000000000000
#02016:1300001300000000
#02017:00130000
#02117:00000000130013002300131300000000
#02112:13131300
#02116:13
#0211b:00001300000000000000002300001300
#02812:121517191a191715
#02814:2a
#02819:00250025
#0281b:0000002300230000
#0281c:0022
#02817:0027000000000027
#04616:0000001300140000
#04612:26001300000000001300001300001300
#0461b:00000000000000000000001300000000
#04618:26
#0461f:21
#04610:0041
#04812:1414
#04819:0013000000000000
#04816:00000000130000000000001300000000
#0481a:00140000
#04817:1313
#0481b:00000000000000000000131300000000
#04814:0000001300000000
#00915:0014000000000000
#00919:00000014000000000000000000000000
#00913:0000001400000000
#00917:00000000000000140000000000000000
#00912:00002415
#00914:00240000
#00916:24
#00416:0000141400140014
#0041a:1414000014001400
#01412:12
#01417:12005200520052520000000000000000
#01410:41
#01419:00000000000000000052000000000000
#0141b:00000000000000000000005200520000
#0141a:0000000000520000
#02212:0013130000000013
#02217:0013000013000000
#0221b:13000000000013000000131300000000
#02216:13000000000013000000001300000000
#02210:41
#02312:0000140000242400
#02315:13000013000013001300000000000000
#0231a:14001424
#02318:00001300130000130000000000000000
#02316:0000000000140000
#0471b:00000000230000002300002300001300
#04716:1313000000240000
#04712:23002300000000002300002300000000
#04717:0000002300000000
#05916:0000131300001313
#05912:00000013000000001700001300000000
#0591b:0000131300001313
#05915:63
#05918:63
#03417:1252000000000000
#03416:00140000
#03415:0000000016520000
#03414:00000018
#0341a:0000000000000052
#03418:0000005200000000
#03513:1a52000000000000
#03512:00001c001c521c00
#0351c:0000005200000052
#06112:00000013130000001700001300001300
#06112:00000000000000000000001300000000
#06115:00000013
#0611b:0000131300000013
#06118:00000000000000000000000000130000
#06116:2400001300000000
#06117:00000013000000000000000000000000
#0611a:24
#05412:0000001c
#00812:00000000000013000000001300001300
#00812:00000000000000000000001300000000
#00816:00001313
#00817:1300131300000000
#0081b:00000013000000000000000000001300
#0601b:00000013000000000000001300000000
#06012:2400131300001313
#06017:0000131317001313
#06016:24
#01816:0000000000000012
#0181c:00000012
#01814:2a000000000000000000000000000052
#01812:002a000000000000
#0181a:00000000000000000000000000520000
#0181b:0000000000000000000000000000000000000000000000000052000000000000
#01819:0000000000000000000000000000000000000000000000000000005200000000
#01818:0000000000000052
#01815:0000000000000000000000000000000000000000000000000000000000520000
#01813:0000000000000000000000000000000000000000000000000000000000000052
#01917:00000012
#0191c:0012001200000000
#01912:52121200
#01914:26262600
#01916:0026002600000000
#0021a:1414141400001414
#00216:0000000014140000
#0101c:12
#01017:12005200520052005200525252520000
#03017:00000013130013001300000000000000
#03012:24000000000013000000001313000000
#0301b:0000000000000013
#03016:0000000000000013
#03010:41
#0321b:00000000000013000000001313000000
#03216:1400001313000000
#03212:00000013130000000000000000001300
#03217:0000000000000013
#01616:13000013130013001300001313001300
#01612:6413
#0161b:00130013
#03612:1c521c001c001c00
#03610:41
#03615:0000005200000000
#03618:0000000000520000
#0361b:0000000000000052
#03712:1c1c1c1c
#03717:0052000000520000
#03713:0000005200000000
#0371b:0000000000000052
#03812:1c001c001c521c00
#0381f:11
#03813:0052000000000000
#03818:0052000000000000
#03817:0000000000520052
#0381c:0000000000000052
#0381b:0000005200000000
#03816:0000005200000000
#04217:12000012000000000000000000000000
#04216:00000000000000001200001200000000
#04218:0000000000000012
#04214:00000000000000000000000000120000
#0421a:24242424
#04312:12000000000000000052000000000000
#04314:0000000000001200000000000000000000520000000012000000000000000000
#04316:0000001212000000
#0431a:24242424
#0491a:1400240014240000
#04915:0016001600000000
#04912:24142400
#04916:0000000000140000
#04918:00000026
#00516:0000141400140000
#00512:1414000014002400
#0051a:00000024
#0061b:00000000000013000000001300001300
#00616:00000013000013001300000000000000
#00617:00000013
#00612:0000130000000013
#0061a:24
#00610:41
#03116:00000013130013001300000000000000
#0311b:00000000000013000000001313000000
#03112:0000000000000013
#03117:0000000000000013
#0311a:14
#03317:0014000000000000
#03313:00000014000000000000000000000000
#03319:0000001400001500
#03315:00000000000000140000000000000000
#03318:00240000
#0331a:0024
#03316:24
#02415:0000000000130000
#02412:23000000000013000000001300000000
#0241b:0000130000000013
#02418:00000000000000000000001300000000
#02414:0013000000000000
#02417:1300001300000000
#02416:00130000
#02516:00000000130013002300131300000000
#0251b:13131300
#02517:13
#02512:00001300000000000000002300001300
#0261b:0013130000000013
#02612:13000000000013000000131300000000
#02616:0013000013000000
#02617:13000000000013000000001300000000
#0271a:0000140000242400
#02718:13000013000013001300000000000000
#02712:14001424
#02715:00001300130000130000000000000000
#02716:0000000000140000
#03912:1c001c001c521c00
#0391b:0000005200000000
#03916:0000005200000052
#03918:0052000000520000
#0391c:0000000000000052
#03913:0052000000000000
#0441c:00000012000000000000000000000000
#04417:12000000000000000000001200000000
#0441a:0000000012000012
#04418:00000000000000000000000000120000
#04412:24242424
#0451c:12000000000000000052000000000000
#0451a:0000000000001200000000000000000000520000000000000000000000000000
#04518:0000001212000000
#04519:00000013
#04515:0000000000000014
#04514:00000013
#04512:24242400
#05014:1a
#05015:0019000000000000
#05016:00180000
#05017:0000001700000000
#05018:0016
#05019:0000000000150000
#0501a:00000014
#0501b:0000000000000013
#05012:2223242526272829
#05212:1a19181716151413
#0521c:22
#0521b:0023000000000000
#0521a:00240000
#05219:0000002500000000
#05218:0026
#05217:0000000000270000
#05216:00000028
#05215:0000000000000029
#01312:1300001313000013
#0131b:00000013130000000000001313000000
#01317:13131313
#01716:13000013130013001300001313001300
#01712:1313
#0171b:00130013
#00312:1414141400001414
#00316:0000000014140000
#04112:1c1c1c1c
#04116:0052000000000000
#04118:0000005200000000
#04114:0000000000520000
#0411a:0000000000000052
#04012:1c001c521c001c52
#04016:0052000000000000
#0401c:0052000000520000
#04014:0000000000520000
#04018:0000005200000000
#0401a:0000000000000052
#00712:13000000000013000000001300001300
#00717:00000013000013001300000000000000
#00716:00000013
#0071b:0000130000000013
#05512:258500000000000000000000000000000000000000000000000000000000000000000000000000000000000000000000000000000000000000000000000000000000000000000000000000000000000054000000000000000000000000000000000000000000000000000000000000000000000000000000000000000000000000000000000000000000000000000000000000000000000000000000000000005400000000000000000000000000000000000000000000000000000000000000000000000000000000000000000000000000000000000000000000000000000000000000000000000000000000000000540000000000000000000000000000000000000000000000000000000000000000000000000000000000000000000000000000000000000000000000000000000000000000000000000000000000000054000000000000000000000000000000000000000000000000000000000000000000000000000000000000000000000000000000000000000000000000000000000000000000000000000000000000005400000000000000000000000000000000000000000000000000000000000000000000000000000000000000000000000000000000000000000000000000000000000000000000000000000000000000000000000000000000000000000000000000000000000000000000000000000000000000000000000000000000000000000000000000000000000000000000000000000000000000000000000000000000000000000000000000000000000000000000000000000000000000000000000000000000000000000000000000000000000000000000000000000000000000000000000000000000000000000000000000000000000000000000000000000000000000000000000000000000000000000000000000000000000000000000000000000000000000000000000000000000000000000000000000000000000000000000000000000000000000000000000000000000000000000000000000000000000000000000000000000000000000000000000000000000000000000000000000000000000000000000000000000000000000000000000000000000000000000000000000000000000000000000000000000000000000000000000000000000000000000000000000000000000000000000000000000000000000000000000000000000000000000000000000000000000000000000000000000000000000000000000000000000000000000000000000000000000000000000000000000000000000000000000000000000000000000000000000000000000000000000000000000000000000000000000000000000000000000000000000000000000000000000000000000000000000000000000000000000000000000000000000000000000000000000000000000000000000000000000000000000000000000000000000000000000000000000000000000000000000000000000000000000000000000000000000000000000000000000000000000000000000000000000000000000000000000000000000000000000000000000000000000000000000000000000000000000000000000000000000000000000000000000000000000000000000000000000000000000000000000000000000000000000000000000000000000000000000000000000000000000000000000000000000000000000000000000000000000000000000000000000000000000000000000000000000000000000000000000000000000000000000000000000000000000000000000000000000000000000000000000000000000000000000000000000000000000000000000000000000000000000000000000000000000000000000000000000000000000000000000000000000000000000000000000000000000000000000000000000000000000000000000000000000000000000000000000000000000000000000000000000000000000000000000000000000000000000000000000000000000000000000000000000000000000000000000000000000000000000000000000000000000000000000000000000000000000000000000000000000000000000000000000000000000000000000000000000000000000000000000000000000000000000000000000000000000000000000000000000000000000000000000000000000000000000000000000000000000000000000000000000000000000000000000000000000000000000000000000000000000000000000000000000000000000000000000000000000000000000000000000000000000000000000000000000000000000000000000000000000000000000000000000000000000000000000000000000000000000000000000000000000000000000000000000000000000000000000000000000000000000000000000000000000000000000000000000000000000000000000000000000000000000000000000000000000000000000000000000000000000000000000000000000000000000000000000000000000000000000000000000000000000000000000000000000000000000000000000000000000000000000000000000000000000000000000
#05519:258500000000000000000000000000000000000000000000000000000000000000000000000000000000000000000000000000000000000000000000000000000000000000000000000000000000000000000000000000000000000000000000000000000000000000000000000000000000000000000000000000000000000000000000000000000000000000000000000000000000000000000000000000000000000000000000000000000000000000000000000000000000000000000000000000000000000000000000000000000000000000000000000000000000000000000000000000000000000000000000000000000000000000000000000000000000000000000000000000000000000000000000000000000000000000000000000000000000000000000000000000000000000000000000000000000000000000000000000000000000000000000000000000000000000000000000000000000000000000000000000000000000000000000000000000000000000000000000000000000000000000000000000000000000000000000000000000000000000000000000000000000000000000000000000000000000000000000000000000000000000000000000000000000000000000000000000000000000000000000000540000000000000000000000000000000000000000000000000000000000000000000000000000000000000000000000000000000000000000000000000000000000000000000000000000000000000054000000000000000000000000000000000000000000000000000000000000000000000000000000000000000000000000000000000000000000000000000000000000000000000000000000000000005400000000000000000000000000000000000000000000000000000000000000000000000000000000000000000000000000000000000000000000000000000000000000000000000000000000000000540000000000000000000000000000000000000000000000000000000000000000000000000000000000000000000000000000000000000000000000000000000000000000000000000000000000000054000000000000000000000000000000000000000000000000000000000000000000000000000000000000000000000000000000000000000000000000000000000000000000000000000000000000005400000000000000000000000000000000000000000000000000000000000000000000000000000000000000000000000000000000000000000000000000000000000000000000000000000000000000000000000000000000000000000000000000000000000000000000000000000000000000000000000000000000000000000000000000000000000000000000000000000000000000000000000000000000000000000000000000000000000000000000000000000000000000000000000000000000000000000000000000000000000000000000000000000000000000000000000000000000000000000000000000000000000000000000000000000000000000000000000000000000000000000000000000000000000000000000000000000000000000000000000000000000000000000000000000000000000000000000000000000000000000000000000000000000000000000000000000000000000000000000000000000000000000000000000000000000000000000000000000000000000000000000000000000000000000000000000000000000000000000000000000000000000000000000000000000000000000000000000000000000000000000000000000000000000000000000000000000000000000000000000000000000000000000000000000000000000000000000000000000000000000000000000000000000000000000000000000000000000000000000000000000000000000000000000000000000000000000000000000000000000000000000000000000000000000000000000000000000000000000000000000000000000000000000000000000000000000000000000000000000000000000000000000000000000000000000000000000000000000000000000000000000000000000000000000000000000000000000000000000000000000000000000000000000000000000000000000000000000000000000000000000000000000000000000000000000000000000000000000000000000000000000000000000000000000000000000000000000000000000000000000000000000000000000000000000000000000000000000000000000000000000000000000000000000000000000000000000000000000000000000000000000000000000000000000000000000000000000000000000000000000000000000000000000000000000000000000000000000000000000000000000000000000000000000000000000000000000000000000000000000000000000000000000000000000000000000000000000000000000000000000000000000000000000000000000000000000000000000000000000000000000000000000000000000000000000000000000000000000000000000000000000000000000000000000000000000000
#05513:005a005a005a005a005a005a540054005400540054005400000000000000000000000000000000000000000000000000
#0551a:005454545454000000000000000000000000000000000000
#05514:000000000000000000000000005800580058005800580058540054005400540054005400000000000000000000000000
#05518:000000000000000000000000545454545454535353535353
#05515:000000000000000000000000000000000000000000000000005600560056005600560056530053005300530053005300
#05516:000000000000000000000000000000000000000000000000000000000000000000000000005400540054005400540054
#05117:22222200
#05112:00000029
#0511b:00000023
#02915:00000026
#02916:64646400
#05315:00000029
#05317:22222200
#05312:00000023
#01516:00000000000000000000005200000000
#01513:00005200000000005200000000520000
#01517:5252525200000000
#01515:00520052000000520000000000000000
#01514:00000000000000000052000000000000
#0151b:52520000
#01519:00520052000000000000000000000000
#01116:00520000000000000000000000000000
#01115:0052000000000000
#01114:00000052000000000000000000000000
#01113:00520000
#01117:5200520052005252
#01118:00000000005200000000000000000000
#01119:0000005200520000
#0111a:00000000000000520000000000000000
#0111b:0052
#05615:535600560056005600560000000000000000000000000000000000000000000000000000000000000000000000000000
#05618:535454545454000000000000000000000000000000000000
#05614:000054005400540054005458005800580058005800580000000000000000000000000000000000000000000000000000
#05619:000000000000545454545454000000000000000000000000
#05613:00000000000000000000000054005400540054005400545a005a005a005a005a005a0000000000000000000000000000
#0561a:000000000000000000000000545454545454000000000000
#05612:00000000000000000000000000000000000000000000000054005400540054005400545c535c535c535c535c535c535c
#0561b:000000000000000000000000000000000000535353535353
#05712:525c525c525c525c525c525c515c515c515c515c515c515c525c525c525c525c525c525c535c535c535c535c535c535c
#0571c:525252525252000000000000525252525252000000000000
#0571d:000000000000515151515151000000000000000000000000
#0571b:000000000000000000000000000000000000535353535353
#05812:545454545454000000000000000000000000000000000000
#0581a:545454545454000000000000000000000000000000000000
#05813:005a005a005a005a005a005a540054005400540054005400000000000000000000000000000000000000000000000000
#05819:000000000000545454545454000000000000000000000000
#05814:000000000000000000000000005800580058005800580058540054005400540054005400000000000000000000000000
#05815:000000000000000000000000000000000000000000000000005600560056005600560056530053005300530053005300
#05818:000000000000000000000000545454545454535353535353
#05816:000000000000000000000000000000000000000000000000000000000000000000000000005400540054005400540054
#01452:12
#04652:36006300000000000000003300000000
#04658:46
#04656:00130000
#0465b:00000000000000001300005300000000
#02157:00000000530000004300005300000000
#0215b:00000000000000000000004300000000
#02152:53
#00956:34
#00952:00003435
#00954:00340000
#00959:00000045
#0205b:13000000000023000000002300000000
#02055:00000000000000000000003300000000
#02056:5300002300000000
#02052:00533300
#02057:00530000
#0225b:23000000000000000000005300000000
#02252:00230000
#02257:0053000043000000
#02256:00000000000053000000003300000000
#0125b:00530053
#01252:6363
#01256:14
#06252:00363600
#06258:4646
#0105c:12
#01656:63636363
#01652:14
#05152:00000039
#0515b:00000043
#04852:3434
#0485a:00440000
#0485b:00000000000000000000002300000000
#04856:00000000000000000000002300000000
#0495a:4444
#04952:00345436
#04956:0000000000240000
#04958:00000046
#0065a:14
#01952:32323200
#0195c:0042004200000000
#0235a:00006444
#02356:0000000000240000
#02358:00430000
#02355:3333
#02352:00000034
#0315a:14
#03256:14
#03359:00000045
#03358:00440000
#0335a:0044
#03356:44
#03352:00000035
#02556:00000000630000003300006300000000
#0255b:63
#02552:00000000000000000000003300000000
#02452:13000000000023000000002300000000
#02458:00000000000000000000004300000000
#02457:6300002300000000
#0245b:00634300
#02456:00630000
#02652:23000000000000000000006300000000
#02656:0063000033000000
#02657:00000000000063000000004300000000
#0265b:00230000
#02758:4343
#02755:00330000
#02752:00005434
#02756:0000000000240000
#0275a:00000044
#02955:00000016
#04555:0000000000000024
#04559:00000053
#0475b:00000000000000000000004300000000
#04752:00000000000000001300006300000000
#05355:00000049
#05352:00000033
#05955:13
#05958:13
#05952:0037
#0615a:14
#06156:14
#06152:0037
#06056:14
#06052:14
#06057:0047
#01352:6363
#0135b:00530053
#01756:63636363
#01854:4a
#01852:003a000000000000
#03052:14
#002340:120000000032320000000032320000000000000000220000
#0033a0:120000000032320000000032320000000000000000220000
#004320:120000000032320000000032320000000000000000220000
#0053c0:120000000032320000000032320000220000000000000000
#006370:135300000000000000000000000000000000000000000000000000000000000000000000000000000000000000000000
#006360:000053000000000000530000000000000000000000000000000000000000000000000000000000000000000000000000000000000000000000000000000000000000000000000000000000000000000000000000000000000000000000000000000000000000000000000000000000000000000000000000000000000000000000000000000000000000000000000000000000000000000000000000000000000000000000000000000000000000000000000000000000000000000000000000
#006350:00005300005300530000000000000000000000000000000000000000000000000000000000000000000000000000000000000000000000000000000000000000
#006340:00000000530053000053000000000000000000000000000000000000000000000000000000000000000000000000000000000000000000000000000000000000
#006330:00000000000000005300005300000000000000000000000000000000000000000000000000000000000000000000000000000000000000000000000000000000
#006320:0000000000532300000000000000000000000000000000000000000000000000
#006320:000000000000000000000000000000000000000000000000135300000000000000000000000000000000000000000000
#006330:000000000000000000000000000000000000000000000000000000000000000000000000000000000000000000000000000000000000000000000000000000000000000000000000000000000000000000000000000000000000000000000000000053000000000000530000000000000000000000000000000000000000000000000000000000000000000000000000000000000000000000000000000000000000000000000000000000000000000000000000000000000000000000000000
#006340:00000000000000000000000000000000000000000000000000000000000000000000530000530053000000000000000000000000000000000000000000000000
#006350:00000000000000000000000000000000000000000000000000000000000000000000000053005300005300000000000000000000000000000000000000000000
#006360:00000000000000000000000000000000000000000000000000000000000000000000000000000000530000530000000000000000000000000000000000000000
#006370:0000000000000000000000000000000000000000005323000000000000000000
#007360:135300000000000000000000000000000000000000000000000000000000000000000000000000000000000000000000
#007370:000053000000000000530000000000000000000000000000000000000000000000000000000000000000000000000000000000000000000000000000000000000000000000000000000000000000000000000000000000000000000000000000000000000000000000000000000000000000000000000000000000000000000000000000000000000000000000000000000000000000000000000000000000000000000000000000000000000000000000000000000000000000000000000000
#007380:00005300005300530000000000000000000000000000000000000000000000000000000000000000000000000000000000000000000000000000000000000000
#007390:00000000530053000053000000000000000000000000000000000000000000000000000000000000000000000000000000000000000000000000000000000000
#0073a0:00000000000000005300005300000000000000000000000000000000000000000000000000000000000000000000000000000000000000000000000000000000
#0073b0:0000000000532300000000000000000000000000000000000000000000000000
#0073b0:000000000000000000000000000000000000000000000000135300000000000000000000000000000000000000000000
#0073a0:000000000000000000000000000000000000000000000000000000000000000000000000000000000000000000000000000000000000000000000000000000000000000000000000000000000000000000000000000000000000000000000000000053000000000000530000000000000000000000000000000000000000000000000000000000000000000000000000000000000000000000000000000000000000000000000000000000000000000000000000000000000000000000000000
#007390:00000000000000000000000000000000000000000000000000000000000000000000530000530053000000000000000000000000000000000000000000000000
#007380:00000000000000000000000000000000000000000000000000000000000000000000000053005300005300000000000000000000000000000000000000000000
#007370:00000000000000000000000000000000000000000000000000000000000000000000000000000000530000530000000000000000000000000000000000000000
#007360:0000000000000000000000000000000000000000005323000000000000000000
#008320:130000005300000000530000000000530000000000000000000000000000000000000000000000000000000000000000000000000000000000000000000000000000000000000000000000000000000000000000000000000000000000000000000000000000000000000000000000000000000000000000000000000000000000000000000000000000000000000000000000000000000000000000000000000000000000000000000000000000000000000000000000000000000000000000
#008330:000053000000530000000000530000000000000000530000000000000000000000000000000000000000000000000000000000000000000000000000000000000000000000000000000000000000000000000000000000000000000000000000000000000000000000000000000000000000000000000000000000000000000000000000000000000000000000000000000000000000000000000000000000000000000000000000000000000000000000000000000000000000000000000000
#008340:00000000000053000053000000000000000000000000000000000000000000000000000000000000000000000000000000000000000000000000000000000000
#008350:00000000000000005300005300000000000000000000000000000000000000000000000000000000000000000000000000000000000000000000000000000000
#008360:0000000000530000000000000000000000000000000000000000000000000000
#008370:00000023000000000000000000000000
#0083b0:000000000000000000000000000000000000000000000000000000000000000000000000000000000000000000000000000000000000000000000000000000000000000000000000000000000000000000000000000000000000000000000000130000005300000000530000000000530000000000000000000000000000000000000000000000000000000000000000000000000000000000000000000000000000000000000000000000000000000000000000000000000000000000000000
#0083a0:000000000000000000000000000000000000000000000000000000000000000000000000000000000000000000000000000000000000000000000000000000000000000000000000000000000000000000000000000000000000000000000000000053000000530000000000530000000000000000530000000000000000000000000000000000000000000000000000000000000000000000000000000000000000000000000000000000000000000000000000000000000000000000000000
#008390:00000000000000000000000000000000000000000000000000000000000000000000000000005300005300000000000000000000000000000000000000000000
#008380:00000000000000000000000000000000000000000000000000000000000000000000000000000000530000530000000000000000000000000000000000000000
#008370:0000000000000000000000000000000000000000005300000000000000000000
#008360:00000000000000000000002300000000
#0093a0:1454545424000000000000000000000000000000000000000000000000000000
#009390:00540054005400540000000000000000000000000000000000000000000000000000000000000000000000000000000000000000000000000000000000000000
#009380:0000000000000000145454542400000000000000000000000000000000000000
#009370:00000000000000000000000000000000005400540054005400000000000000000000000000000000000000000000000000000000000000000000000000000000
#009360:00000000000000000000000000000000000000000000000000000000000000001400540054005400540000540000000000000000000000000000000000000000
#009350:00000000000000000000000000000000000000000000000000000000000000000054005400540054005400000000000000000000000000000000000000000000
#009370:00000000000000000000000000000000000000000000000000000000000000000000000000000000000054000054000000000000000000000000000000000000
#009380:00000000000000000000000000000000000000000000000000000000000000000000000000000000000000005400005400000000000000000000000000000000
#009390:0000000000000000000000000000000000000000000000542500000000000000
#012320:13
#012370:00000023000000000000000000000000
#0123b0:00130000
#012370:00000000005323000000000000000000
#012320:0013
#012370:00000000000000000000002300000000
#0123b0:00000013
#012370:00000000000000000000000000532300
#013320:13
#013370:00000023000000000000000000000000
#0133b0:00130000
#013370:00000000005323000000000000000000
#013320:0013
#013370:00000000000000000000002300000000
#0133b0:00000013
#013370:00000000000000000000000000532300
#016360:13
#0163b0:00000023000000000000000000000000
#016360:00130000
#016320:00000000005323000000000000000000
#016360:0013
#0163b0:00000000000000000000002300000000
#016360:00000013
#016320:00000000000000000000000000532300
#017360:13
#0173b0:00000023000000000000000000000000
#017360:00130000
#017320:00000000005323000000000000000000
#017360:0013
#0173b0:00000000000000000000002300000000
#017360:00000013
#017320:00000000000000000000000000532300
#020360:1300005300000000
#020320:00532300
#020371:00132300
#0203b1:0000005300000000
#0203b1:00000000000000000000001300000000
#020361:0000000000000023
#021321:13
#021361:0023000000000000
#021371:00130000
#0213b1:0000002300000000
#021371:00000000000000000000001300000000
#021321:0000000000000023
#0223b1:13230000
#022371:0033000000000000
#022320:00132300
#022360:0000003300000000
#0223b0:00000000000000000000001300000000
#022360:0000000000000023
#0233a0:00001424
#023360:0000000000340000
#024370:1300005300000000
#0243b0:00532300
#024361:00132300
#024321:0000005300000000
#024321:00000000000000000000001300000000
#024371:0000000000000023
#0253b1:13
#025371:0023000000000000
#025361:00130000
#025321:0000002300000000
#025361:00000000000000000000001300000000
#0253b1:0000000000000023
#026321:13230000
#026361:0033000000000000
#0263b0:00132300
#026370:0000003300000000
#026320:00000000000000000000001300000000
#026370:0000000000000023
#027320:00001424
#027360:0000000000340000
#029360:14
#029370:005200000000000000000000000000000000000000000000000000000000000000000000000000000000000000000000000000000000000000000000000000000000000000000000000000000000000000000000000000000000000000000000000000000000000000000000000000000000000000000000000000000000000000000000000000000000000000000000000000000000000000000000000000000000000000000000000000000000000000000000000000000000000000000000000000000000000000000000000000000000000000000000000000000000000000000000000000000000000000000000000000000000000000000000000000000000000000000000000000000000000000000000000000000000000000000000000000000000000000000000000000000000000000000000000000000000000000000000000000000000000000000000000000000000000000000000000000000000000000000000000000000000000000000000000000000000000000000000000000000000000000000000000000000000000000000000000000000000000000000000000000000000000000000000000000000000000000000000000000000000000000000000000000000000000000000000000000000000000000000000000000000000000000000000000000000000000000000000000000000000000000000000000000000000000000000000000000000000000000000000000000000000000000000000000000000000000000000000000000000000000000000000000000000000000000000000000000000000000000000000000000000000000000000000000000000000000000000000000000000000000000000000000000000000000000000000000000000000000000000000000000000000000000000000000000000000000000000000000000000000000000000000000000000000000000000000000000000000000000000000000000000000000000000000000000000000000000000000000000000000000000000000000000000000000000000000000000000000000000000000000000000000000000000000000000000000000000000000000000000000000000000000000000000000000000000000000000000000000000000000000000000000000000000000000000000000000000000000000000000000000000000000000000000000000000000000000000000000000000000000000000000000000000000000000000000000000000000000000000000000000000000000000000000000000000000000000000000000000000000000000000000000000000000000000000000000000000000000000000000000000000000000000000000000000000000000000000000000000000000000000000000000000000000000000000000000000000000000000000000000000000000000000000000000000000000000000000000000000000000000000000000000000000000000000000000000000000000000000000000000000000000000000000000000000000000000000000000000000000000000000000000000000000000000000000000000000000000000000000000000000000000000000000000000000000000000000000000000000000000000000000000000000000000000000000000000000000000000000000000000000000000000000000000000000000000000000000000000000000000000000000000000000000000000000000000000000000000000000000000000000000000000000000000000000000000000000000000000000000000000000000000000000000000000000000000000000000000000000000000000000000000000000000000000000000000000000000000000000000000000000000000000000000000000000000000000000000000000000000000000000000000000000000000000000000000000000000000000000000000052000000000000000000000000000000000000000000000000000000000000000000000000000000000000000000000000000000000000000000000000000000000000000000000000000000000000000000000000000000000000000000000000000000000000000000000000000000000000000000000000000000000000000000000000000000000000000000000000000000000000000000000000000000000000000000000000000000000000000000000000000000000000000000000000000000000000000000000000000000000000000000000000000000000000000000000000000000000000000000000000000000000000000000000000000000000000000000000000000000000000000000000000000000000000000000000000000000000000000000000000000000000000000000000000000000000000000000000000000000000000000000000000000000000000000000000000000000000000000000000000000000000000000000000000000000000000000000000000000000000000000000000000000000000000000000000000000000000000000000000000000000000000000000000000000000000000000000000000000000000000000000000000000000000000000000000000000000000000000000000000
#029350:00000026
#030360:13
#030380:005300005300000000000000000000000000000000000000000000000000000000000000000000000000000000000000000000000000000000000000000000000000000000000000000000000000000000000000000000000000000000000000
#030370:005300000000000000000000000000000000000000000000000000000000000000000000000000000000000000000000
#030390:000000530000000053000000000000000000000000000000000000000000000000000000000000000000000000000000000000000000000000000000000000000000000000000000000000000000000000000000000000000000000000000000
#0303a0:000000000000530000000000530000530053005300530053000000000000000000000000000000000000000000000000000000000000000000000000000000000000000000000000000000000000000000000000000000000000000000000000
#0303b0:000000000000000000000000000000000000000053000000000000530000000053000000530000005300000053000000230000000000000000000000000000000000000000000000000000000000000000000000000000000000000000000000000000000000000000000000000000000000000000000000000000000000000000000000000000000000000000000000000000000000000000000000000000000000000000000000000000000000000000000000000000000000000000000000
#0303b0:0013
#030390:000000000000000000000000000000000000000000000000000000000000000000000000000000000000000000000000005300005300000000000000000000000000000000000000000000000000000000000000000000000000000000000000
#0303a0:000000000000000000000000000000000000000000000000005300000000000000000000000000000000000000000000
#030380:000000000000000000000000000000000000000000000000000000000000000000000000000000000000000000000000000000530000000053000000000000000000000000000000000000000000000000000000000000000000000000000000
#030370:000000000000000000000000000000000000000000000000000000000000000000000000000000000000000000000000000000000000530000000000530000530053005300530053000000000000000000000000000000000000000000000000
#030360:000000000000000000000000000000000000000000000000000000000000000000000000000000000000000000000000000000000000000000000000000000000000000000000000000000000000000000000000000000000000000000000000000000000000000000000000000000000000000053000000000000530000000053000000530000005300000053000000230000000000000000000000000000000000000000000000000000000000000000000000000000000000000000000000
#031370:13
#031350:005300005300000000000000000000000000000000000000000000000000000000000000000000000000000000000000000000000000000000000000000000000000000000000000000000000000000000000000000000000000000000000000
#031360:005300000000000000000000000000000000000000000000000000000000000000000000000000000000000000000000
#031340:000000530000000053000000000000000000000000000000000000000000000000000000000000000000000000000000000000000000000000000000000000000000000000000000000000000000000000000000000000000000000000000000
#031330:000000000000530000000000530000530053005300530053000000000000000000000000000000000000000000000000000000000000000000000000000000000000000000000000000000000000000000000000000000000000000000000000
#031320:000000000000000000000000000000000000000053000000000000530000000053000000530000005300000053000000230000000000000000000000000000000000000000000000000000000000000000000000000000000000000000000000000000000000000000000000000000000000000000000000000000000000000000000000000000000000000000000000000000000000000000000000000000000000000000000000000000000000000000000000000000000000000000000000
#031320:0013
#031340:000000000000000000000000000000000000000000000000000000000000000000000000000000000000000000000000005300005300000000000000000000000000000000000000000000000000000000000000000000000000000000000000
#031330:000000000000000000000000000000000000000000000000005300000000000000000000000000000000000000000000
#031350:000000000000000000000000000000000000000000000000000000000000000000000000000000000000000000000000000000530000000053000000000000000000000000000000000000000000000000000000000000000000000000000000
#031360:000000000000000000000000000000000000000000000000000000000000000000000000000000000000000000000000000000000000530000000000530000530053005300530053000000000000000000000000000000000000000000000000
#031370:000000000000000000000000000000000000000000000000000000000000000000000000000000000000000000000000000000000000000000000000000000000000000000000000000000000000000000000000000000000000000000000000000000000000000000000000000000000000000053000000000000530000000053000000530000005300000053000000230000000000000000000000000000000000000000000000000000000000000000000000000000000000000000000000
#0323b0:130000005300000053000000530000005300000000530000000000005300000000000000000000000000000000000000000000000000000000000000000000000000000000000000000000000000000000000000000000000000000000000000000000000000000000000000000000000000000000000000000000000000000000000000000000000000000000000000000000000000000000000000000000000000000000000000000000000000000000000000000000000000000000000000
#0323a0:005300530053005300530000530000000000530000000000000000000000000000000000000000000000000000000000000000000000000000000000000000000000000000000000000000000000000000000000000000000000000000000000
#032390:000000000000000000000000000000005300000000530000000000000000000000000000000000000000000000000000000000000000000000000000000000000000000000000000000000000000000000000000000000000000000000000000
#032380:000000000000000000000000000000000000000053000053000000000000000000000000000000000000000000000000000000000000000000000000000000000000000000000000000000000000000000000000000000000000000000000000
#032370:000000000000000000000053000000000000000000000000000000000000000000000000000000000000000000000000
#032360:00230000
#032320:000000000000000000000000000000000000000000000000000000000000000000000000000000000000000000000000000000000000000000000000000000000000000000000000000000000000000000000000000000000000000000000000130000005300000053000000530000005300000000530000000000005300000000000000000000000000000000000000000000000000000000000000000000000000000000000000000000000000000000000000000000000000000000000000
#032330:000000000000000000000000000000000000000000000000000000000000000000000000000000000000000000000000005300530053005300530000530000000000530000000000000000000000000000000000000000000000000000000000
#032340:000000000000000000000000000000000000000000000000000000000000000000000000000000000000000000000000000000000000000000000000000000005300000000530000000000000000000000000000000000000000000000000000
#032350:000000000000000000000000000000000000000000000000000000000000000000000000000000000000000000000000000000000000000000000000000000000000000053000053000000000000000000000000000000000000000000000000
#032360:000000000000000000000000000000000000000000000000000000000000000000000053000000000000000000000000
#032370:00000023
#033320:1454545424000000000000000000000000000000000000000000000000000000
#033330:00540054005400540000000000000000000000000000000000000000000000000000000000000000000000000000000000000000000000000000000000000000
#033340:0000000000000000145454542400000000000000000000000000000000000000
#033350:00000000000000000000000000000000005400540054005400000000000000000000000000000000000000000000000000000000000000000000000000000000
#033360:00000000000000000000000000000000000000000000000000000000000000001400540054005400540000540000000000000000000000000000000000000000
#033370:00000000000000000000000000000000000000000000000000000000000000000054005400540054005400000000000000000000000000000000000000000000
#033350:00000000000000000000000000000000000000000000000000000000000000000000000000000000000054000054000000000000000000000000000000000000
#033340:00000000000000000000000000000000000000000000000000000000000000000000000000000000000000005400005400000000000000000000000000000000
#033330:0000000000000000000000000000000000000000000000540000000000000000
#033320:00000025
#045390:00000013
#045350:0000000000000054
#046380:26
#046320:0013000000000000
#046360:00230000
#0463b1:00132300
#0463b1:00000000000000000000001300000000
#046361:0000000000000023
#047361:00130000
#047321:0000002300000000
#047321:00000000000000000000001300000000
#047371:0000000000000023
#0483b1:00000000000000000000001300000000
#048371:0000000000000023
#048360:00000000000000000000001300000000
#048320:0000000000000023
#049320:00001426
#049360:0000000000340000
#055320:152500000000000000000000000000000000000000000000000000000000000000000000000000000000000000000000000000000000000000000000000000000000000000000000000000000000000000000000000000000000000000000000000000000000000000000000000000000000000000000000000000000000000000000000000000000000000000000000000000000000000000000000000000000000000000000000000000000000000000000000000000000000000000000000000000000000000000000000000000000000000000000000000000000000000000000000000000000000000000000000000000000000000000000000000000000000000000000000000000000000000000000000000000000000000000000000000000000000000000000000000000000000000000000000000000000000000000000000000000000000000000000000000000000000000000000000000000000000000000000000000000000000000000000000000000000000000000000000000000000000000000000000000000000000000000000000000000000000000000000000000000000000000000000000000000000000000000000000000000000000000000000000000000000000000000000000000000000000000000000000000000000000000000000000000000000000000000000000000000000000000000000000000000000000000000000000000000000000000000000000000000000000000000000000000000000000000000000000000000000000000000000000000000000000000000000000000000000000000000000000000000000000000000000000000000000000000000000000000000000000000000000000000000000000000000000000000000000000000000000000000000000000000000000000000000000000000000000000000000000000000000000000000000000000000000000000000000000000000000000000000000000000000000000000000000000000000000000000000000000000000000000000000000000000000000000000000000000000000000000000000000000000000000000000000000000000000000000000000000000000000000000000000000000000000000000000000000000000000000000000000000000000000000000000000000000000000000000000000000000000000000000000000000000000000000000000000000000000000000000000000000000000000000000000000000000000000000000000000000000000000000000000000000000000000000000000000000000000000000000000000000000000000000000000000000000000000000000000000000000000000000000000000000000000000000000000000000000000000000000000000000000000000000000000000000000000000000000000000000000000000000000000000000000000000000000000000000000000000000000000000000000000000000000000000000000000000000000000000000000000000000000000000000000000000000000000000000000000000000000000000000000000000000000000000000000000000000000000000000000000000000000000000000000000000000000000000000000000000000000000000000000000000000000000000000000000000000000000000000000000000000000000000000000000000000000000000000000000000000000000000000000000000000000000000000000000000000000000000000000000000000000000000000000000000000000000000000000000000000000000000000000000000000000000000000000000000000000000000000000000000000000000000000000000000000000000000000000000000000000000000000000000000000000000000000000000000000000000000000000000000000000000000000000000000000000000000000000000000000000000000000000000000000000000000000000000000000000000000000000000000000000000000000000000000000000000000000000000000000000000000000000000000000000000000000000000000000000000000000000000000000000000000000000000000000000000000000000000000000000000000000000000000000000000000000000000000000000000000000000000000000000000000000000000000000000000000000000000000000000000000000000000000000000000000000000000000000000000000000000000000000000000000000000000000000000000000000000000000000000000000000000000000000000000000000000000000000000000000000000000000000000000000000000000000000000000000000000000000000000000000000000000000000000000000000000000000000000000000000000000000000000000000000000000000000000000000000000000000000000000000000000000000000000000000000000000000000000000000000000000000000000000000000000000000000000000000000000000000000000000000000000000000000000000000000000000000000000000000000000000000000000000000000000000000000000000000000000000000000000000
#055391:152500000000000000000000000000000000000000000000000000000000000000000000000000000000000000000000000000000000000000000000000000000000000000000000000000000000000000000000000000000000000000000000000000000000000000000000000000000000000000000000000000000000000000000000000000000000000000000000000000000000000000000000000000000000000000000000000000000000000000000000000000000000000000000000000000000000000000000000000000000000000000000000000000000000000000000000000000000000000000000000000000000000000000000000000000000000000000000000000000000000000000000000000000000000000000000000000000000000000000000000000000000000000000000000000000000000000000000000000000000000000000000000000000000000000000000000000000000000000000000000000000000000000000000000000000000000000000000000000000000000000000000000000000000000000000000000000000000000000000000000000000000000000000000000000000000000000000000000000000000000000000000000000000000000000000000000000000000000000000000000000000000000000000000000000000000000000000000000000000000000000000000000000000000000000000000000000000000000000000000000000000000000000000000000000000000000000000000000000000000000000000000000000000000000000000000000000000000000000000000000000000000000000000000000000000000000000000000000000000000000000000000000000000000000000000000000000000000000000000000000000000000000000000000000000000000000000000000000000000000000000000000000000000000000000000000000000000000000000000000000000000000000000000000000000000000000000000000000000000000000000000000000000000000000000000000000000000000000000000000000000000000000000000000000000000000000000000000000000000000000000000000000000000000000000000000000000000000000000000000000000000000000000000000000000000000000000000000000000000000000000000000000000000000000000000000000000000000000000000000000000000000000000000000000000000000000000000000000000000000000000000000000000000000000000000000000000000000000000000000000000000000000000000000000000000000000000000000000000000000000000000000000000000000000000000000000000000000000000000000000000000000000000000000000000000000000000000000000000000000000000000000000000000000000000000000000000000000000000000000000000000000000000000000000000000000000000000000000000000000000000000000000000000000000000000000000000000000000000000000000000000000000000000000000000000000000000000000000000000000000000000000000000000000000000000000000000000000000000000000000000000000000000000000000000000000000000000000000000000000000000000000000000000000000000000000000000000000000000000000000000000000000000000000000000000000000000000000000000000000000000000000000000000000000000000000000000000000000000000000000000000000000000000000000000000000000000000000000000000000000000000000000000000000000000000000000000000000000000000000000000000000000000000000000000000000000000000000000000000000000000000000000000000000000000000000000000000000000000000000000000000000000000000000000000000000000000000000000000000000000000000000000000000000000000000000000000000000000000000000000000000000000000000000000000000000000000000000000000000000000000000000000000000000000000000000000000000000000000000000000000000000000000000000000000000000000000000000000000000000000000000000000000000000000000000000000000000000000000000000000000000000000000000000000000000000000000000000000000000000000000000000000000000000000000000000000000000000000000000000000000000000000000000000000000000000000000000000000000000000000000000000000000000000000000000000000000000000000000000000000000000000000000000000000000000000000000000000000000000000000000000000000000000000000000000000000000000000000000000000000000000000000000000000000000000000000000000000000000000000000000000000000000000000000000000000000000000000000000000000000000000000000000000000000000000000000000000000000000000000000000000000000000000000000000000000000000000000000000000000000
#0593b1:000000000000000000000000000000000000000000000000000000000000000000000000000000000000000000000000000000000000000000000000000000000000000000000000000000000000000000000000000000000000000000000000130000005300000000530000000000530000000000000000000000000000000000000000000000000000000000000000000000000000000000000000000000000000000000000000000000000000000000000000000000000000000000000000
#0593a1:000000000000000000000000000000000000000000000000000000000000000000000000000000000000000000000000000000000000000000000000000000000000000000000000000000000000000000000000000000000000000000000000000053000000530000000000530000000000000000530000000000000000000000000000000000000000000000000000000000000000000000000000000000000000000000000000000000000000000000000000000000000000000000000000
#059391:00000000000000000000000000000000000000000000000000000000000000000000000000005300005300000000000000000000000000000000000000000000
#059381:00000000000000000000000000000000000000000000000000000000000000000000000000000000530000530000000000000000000000000000000000000000
#059371:0000000000000000000000000000000000000000005300000000000000000000
#059361:00000000000000000000002300000000
#060321:000000000000000000000000000000000000000000000000000000000000000000000000000000000000000000000000000000000000000000000000000000000000000000000000000000000000000000000000000000000000000000000000130000005300000000530000000000530000000000000000000000000000000000000000000000000000000000000000000000000000000000000000000000000000000000000000000000000000000000000000000000000000000000000000
#060331:000000000000000000000000000000000000000000000000000000000000000000000000000000000000000000000000000000000000000000000000000000000000000000000000000000000000000000000000000000000000000000000000000053000000530000000000530000000000000000530000000000000000000000000000000000000000000000000000000000000000000000000000000000000000000000000000000000000000000000000000000000000000000000000000
#060341:00000000000000000000000000000000000000000000000000000000000000000000000000005300005300000000000000000000000000000000000000000000
#060351:00000000000000000000000000000000000000000000000000000000000000000000000000000000530000530000000000000000000000000000000000000000
#060361:0000000000000000000000000000000000000000005300000000000000000000
#060371:00000000000000000000002300000000
#0613b1:000000000000000000000000000000000000000000000000000000000000000000000000000000000000000000000000000000000000000000000000000000000000000000000000000000000000000000000000000000000000000000000000130000005300000000530000000000530000000000000000000000000000000000000000000000000000000000000000000000000000000000000000000000000000000000000000000000000000000000000000000000000000000000000000
#0613a1:000000000000000000000000000000000000000000000000000000000000000000000000000000000000000000000000000000000000000000000000000000000000000000000000000000000000000000000000000000000000000000000000000053000000530000000000530000000000000000530000000000000000000000000000000000000000000000000000000000000000000000000000000000000000000000000000000000000000000000000000000000000000000000000000
#061391:00000000000000000000000000000000000000000000000000000000000000000000000000005300005300000000000000000000000000000000000000000000
#061381:00000000000000000000000000000000000000000000000000000000000000000000000000000000530000530000000000000000000000000000000000000000
#061371:0000000000000000000000000000000000000000005300000000000000000000
#061361:00000000000000000000002300000000
#062321:16260000
#062341:005600005600000000000000000000000000000056000056000000000000000000000000000000000000000000000000000000000000000000000000000000000000000000000000000000000000000000000000000000000000000000000000
#062331:005600000000000000000056000000000000000000000000000000000000000000000000000000000000000000000000
#062351:0056560000005656000000000000000000000000000000000000000000000000
#062361:000000000056000056000000000000005600005600000000000000000000000000000000000000000000000000000000000000000000000000000000000000000000000000000000000000000000000000000000000000000000000000000000
#062371:000000000000005600005600560056000056000000000000000000000000000000000000000000000000000000000000000000000000000000000000000000000000000000000000000000000000000000000000000000000000000000000000
#062381:000000000000000000560056005600560000000000000000000000000000000000000000000000000000000000000000000000000000000000000000000000000000000000000000000000000000000000000000000000000000000000000000
#062380:00162600
#062360:000000000000000000000000000000000000000000000000005600005600000000000000000000000000000056000056000000000000000000000000000000000000000000000000000000000000000000000000000000000000000000000000
#062370:000000000000000000000000005600000000000000000056000000000000000000000000000000000000000000000000
#062350:0000000000000000005656000000565600000000000000000000000000000000
#062340:000000000000000000000000000000000000000000000000000000000056000056000000000000005600005600000000000000000000000000000000000000000000000000000000000000000000000000000000000000000000000000000000
#062330:000000000000000000000000000000000000000000000000000000000000005600005600560056000056000000000000000000000000000000000000000000000000000000000000000000000000000000000000000000000000000000000000
#062320:000000000000000000000000000000000000000000000000000000000000000000560056005600560000000000000000000000000000000000000000000000000000000000000000000000000000000000000000000000000000000000000000
#005920:000000000000000000000000000000000000142400000000
#0059a1:000000000000000000000000000000000000142400000000
#010971:12
#011971:5222
#011931:00520000
#011970:00120052
#0119b0:0052
#012970:22
#014970:12005200520052520000000000000000
#0149b0:00000000000000000000005200520000
#0159b0:52220000
#015970:0052000000000000
#015971:1200525200000000
#015931:00005200000000005200000000520000
#015961:00000000000000000000005200000000
#016931:22
#0189c1:00000012
#018981:0000000000000022
#018960:0000000000000012
#019920:22
#034970:1222000000000000
#034980:0000122200000000
#034950:0000000012220000
#0349a0:0000000000001222
#035930:1222000000000000
#0359c0:0000122200000000
#035920:0000000012220000
#0359c0:0000000000001222
#036920:1222000000000000
#036950:0000122200000000
#036980:0000000012220000
#0369b0:0000000000001222
#037970:1222000000000000
#037930:0000122200000000
#037970:0000000012220000
#0379b0:0000000000001222
#038930:1222000000000000
#038981:1222000000000000
#0389b1:0000122200000000
#038960:0000122200000000
#038920:0000000012220000
#038971:0000000012220000
#038971:0000000000001222
#0389c0:0000000000001222
#039960:12
#039930:0022000000000000
#0399b1:12
#039981:0022000000000000
#039981:00120000
#0399b1:0000002200000000
#039930:00120000
#039960:0000002200000000
#039960:0012
#039920:0000000000220000
#0399c1:0012
#039981:0000000000220000
#039981:00000012
#0399c1:0000000000000022
#039920:00000012
#039960:0000000000000022
#040980:12
#040960:0022000000000000
#0409a1:12
#0409c1:0022000000000000
#040961:00120000
#040981:0000002200000000
#040940:00120000
#040920:0000002200000000
#040970:0012
#040940:0000000000220000
#040991:0012
#0409c1:0000000000220000
#040971:00000012
#0409a1:0000000000000022
#040950:00000012
#040920:0000000000000022
#041930:12
#041960:000000000000000000000000000000000000000000000000000000000000000000000000000000000000000000000000000000000000000000000022000000000000000000000000000000000000000000000000000000000000000000000000000000000000000000000000000000000000000000000000000000000000000000000000000000000000000000000000000000000000000000000000000000000000000000000000000000000000000000000000000000000000000000000000000000000000000000000000000000000000000000000000000000000000000000000000000000000000000000000000000000000000000000000000000000000000000000000000000000000000000000000000000000000000000000000000000000000000000000000000000000000000000000000000000000000000000000000000000000000000000000000000000000000000000000000000000000000000000000000000000000000000000000000000000000000000000000000000000000000000000000000000000000000000000000000000000000000000000000000000000000000000000000000000000000000000000000000000000000000000000000000000000000000000000000000000000000000000000000000000
#041991:12
#041961:0022000000000000
#0419b1:00120000
#041981:000000000000000000000000000000000000000000000000000000000000000000000000000000000000000000000000000000000000000000000000000000000000000000000000000000000000000000000000000000000000000000000000000000000000000000000000000000000000000000000000000000000000000000000000000000000000000000000000000000000000000000000000000000000000000000000000000000000000000000000022000000000000000000000000000000000000000000000000000000000000000000000000000000000000000000000000000000000000000000000000000000000000000000000000000000000000000000000000000000000000000000000000000000000000000000000000000000000000000000000000000000000000000000000000000000000000000000000000000000000000000000000000000000000000000000000000000000000000000000000000000000000000000000000000000000000000000000000000000000000000000000000000000000000000000000000000000000000000000000000000000000000000000000000000000000000000000000000000000000000000000000000000000000000000000000000000000000000000000000000000
#041950:00120000
#041980:0000002200000000
#041930:0012
#041940:000000000000000000000000000000000000000000000000000000000000000000000000000000000000000000000000000000000000000000000000000000000000000000000000000000000000000000000000000000000000000000000000000000000000000000000000000000000000000000000000000000000000000000000000000000000000000000000000000000000000000000000000000000000000000000000000000000000000000000000000000000000000000000000000000000000000000000000000000000000000000000000000000000000000000000000000000000000000000000000000000000000000000000000000000000000000000000000000000000000000000000000000000000000000000000000000000000000000000000000022000000000000000000000000000000000000000000000000000000000000000000000000000000000000000000000000000000000000000000000000000000000000000000000000000000000000000000000000000000000000000000000000000000000000000000000000000000000000000000000000000000000000000000000000000000000000000000000000000000000000000000000000000000000000000000000000000000000000000000000000
#041991:0012
#041941:0000000000220000
#0419b1:00000012
#0419a1:000000000000000000000000000000000000000000000000000000000000000000000000000000000000000000000000000000000000000000000000000000000000000000000000000000000000000000000000000000000000000000000000000000000000000000000000000000000000000000000000000000000000000000000000000000000000000000000000000000000000000000000000000000000000000000000000000000000000000000000000000000000000000000000000000000000000000000000000000000000000000000000000000000000000000000000000000000000000000000000000000000000000000000000000000000000000000000000000000000000000000000000000000000000000000000000000000000000000000000000000000000000000000000000000000000000000000000000000000000000000000000000000000000000000000000000000000000000000000000000000000000000000000000000000000000000000000000000000000000000000000000000000000000000000000000000000000000000000000000000022000000000000000000000000000000000000000000000000000000000000000000000000000000000000000000000000000000000000000000000000
#041950:00000012
#0419a0:0000000000000022
#043960:0012
#043920:00000000000000000022000000000000
#045980:0012
#0459c0:00000000000000000022000000000000
