This file was generated by Ched 2.7.0.0.
#TITLE ""
#ARTIST ""
#DESIGNER ""
#DIFFICULTY 0
#PLAYLEVEL
#SONGID ""
#WAVE ""
#WAVEOFFSET 0
#JACKET ""
#REQUEST "ticks_per_beat 480"
#00002: 4
#BPM01: 118
#00008: 01
#TIL00: ""
#VOLUME: ""
#HISPEED 00
#MEASUREHS 00
#0041a:14
#00512:14
#00618:14
#00714:14
#0081a:14
#00810:41
#0091a:14
#01014:14
#01114:14
#01218:14
#01318:14
#01412:14
#01512:14
#02412:0016
#02418:26
#02410:41
#02612:16
#02618:0016
#02712:16
#02718:0016
#02818:0016
#02812:26
#03018:16
#03012:0016
#03010:41
#03118:16
#03112:0016
#0321a:14
#03214:0014
#0331a:14
#03314:0014
#03418:14
#03412:0014
#03518:14
#03512:0014
#04418:2616
#0441f:21
#04410:0041
#04512:16
#04518:0016
#04612:1616
#04718:1616
#04812:2616
#04918:16
#04912:0016
#05018:1616
#05112:1616
#05412:14
#05418:0014
#05512:14
#05518:0014
#0381f:11
#05914:00000024
#03610:41
#01610:41
#000390:14
#001390:0024
#002330:14
#003330:0024
#0163a0:14
#017380:34
#0183a0:34
#019380:24
#020320:14
#021340:34
#022320:34
#023340:24
#025380:1626
#029320:1626
#036380:14
#0373a0:34
#038380:34
#0393a0:24
#040340:14
#041320:34
#042340:34
#043320:24
#052380:16
#053380:26
#056320:1434
#057320:3424
#0583a0:1434
#0593a0:3424
