This file was generated by Ched 2.7.0.0.
#TITLE ""
#ARTIST ""
#DESIGNER ""
#DIFFICULTY 0
#PLAYLEVEL
#SONGID ""
#WAVE ""
#WAVEOFFSET 0
#JACKET ""
#REQUEST "ticks_per_beat 480"
#00002: 4
#BPM01: 118
#00008: 01
#TIL00: ""
#VOLUME: ""
#HISPEED 00
#MEASUREHS 00
#00018:130053530053000000000000000000000000000000000000
#00012:000000000000000000000000130053530053000000000000
#00315:00001363
#0031b:130053530053000000000000000000000000000000000000
#02412:0013000000130000
#02415:00001313
#02418:0000000000000013
#02417:00130000
#0241a:24
#02410:41
#02618:0013000000130000
#02612:0000130013000013
#0261b:00131300
#02615:13000013
#02715:13130013
#0271b:13000013
#02718:0013001300000013
#02712:0000001300000000
#02818:0013000000000013
#0281b:0013
#02812:1400130000130000
#02815:00000013
#03014:0013000000000000
#0301b:00131300
#03012:00131300
#03015:0000000000130013
#03018:00000013
#03019:0013000000000000
#03010:41
#02912:13
#0291b:13
#02913:00130000
#02914:0013
#02919:0013
#02916:0000000000130000
#02915:0013000000001300
#02918:00000013
#0291a:00130000
#02917:0000001300000000
#03212:14
#0321a:1400003300000000
#03218:00130000
#0321b:00000013
#03215:00000013
#03219:000000000000000000000000000000003300000000000000000000000000000000000000000000330000000000000000
#03213:00000000000000000000000000330000
#03616:00120000
#03618:0000001200000000
#03610:41
#03712:0012000000000000
#03718:00120000
#0391a:00000012
#03916:0000220000120000
#03914:0000000000000012
#0391c:0022002200000000
#00418:160000000000000000000000000000000000230063630063
#0041b:000000000000230063630063000000000000000000000000
#00917:5300000000000013
#0091a:00000013
#00918:0000002363000000
#0091b:00230000
#0161a:00120000
#01616:0012
#01613:00000012
#01618:0000000000120000
#01610:41
#0171a:00120000
#01714:0000001200000000
#01716:0012000000000000
#0181a:00121200
#01816:0000001200000000
#0181c:0000000000000012
#0011b:130053530053000000000000000000000000000000000000
#00115:000000000000000000000000130053530053000000000000
#00218:130053530053000000000000000000000000000000000000
#00212:000000000000000000000000130053530053000000000000
#0081b:00130000
#00818:0000001353000000
#0081a:00000013
#00817:0000000000000013
#00810:41
#01116:0013
#01112:00130013
#0111b:13
#01117:00130000
#01118:00000013
#01115:13
#01018:0000000000000013
#0101b:0000000000130000
#01015:00000013
#01017:53
#01415:5300000000000013
#01412:0000000000130000
#01418:00000013
#02018:12
#02012:12
#0201b:00120000
#02013:0012
#02016:00000012
#0201a:00000032000032000000000000000000
#02015:00000000000000000000003200003200
#02218:12
#02215:00000012000000000000000000000000
#02212:0000001200000000
#02219:0012
#02216:00000000000000000000001200000000
#02213:0000000000000012
#04018:1212
#04012:1212
#04015:00000032120032000000003212003200
#01512:1313
#0151b:00130013
#01516:00000013
#01518:13
#05212:13
#0521b:13
#02316:00000012
#0231a:22
#02317:00000022000000000000000000000000
#02314:0000002200000000
#0231b:0022
#03115:0013000000130000
#03118:0000001300002300
#03112:13
#0311b:0013
#03312:0013000000000000
#03318:000000000000000000000000130053530053000000000000
#03315:000000000000530053530053000000000000130053530053
#03313:005300000000
#03314:000000000053000000000000000000000000000000000000
#04219:00000012000000000000000000000000
#0421c:0000001200000000
#04218:00000000000000000000001200000000
#0421b:0000000000000012
#0341b:000000130000230063630063000000000000000000000000
#03415:000013000013000000000000130000000000000000000000
#03418:130000000000000000000000000013000013000000000000
#03412:000000000000000000000000000000130000230063630063
#0351b:000000130000230063630063000000000000000000000000
#03515:000013000013000000000000330033330013000000000000
#03518:130000000000000000000000000000000013000000000000
#03512:000000000000000000000013000000000000000000000000
#03818:00120000
#03816:0000001200000000
#0381f:11
#0441b:0013000000130000
#04418:00001313
#04415:0000000000000013
#04416:00130000
#04412:26
#0441f:21
#04410:0041
#0461b:1300130013000013
#04616:0014000000000000
#04612:00131300
#04615:0000000000130000
#04618:00000013
#04718:13130013
#04712:13000013
#04715:0013001300000013
#0471b:0000001300000000
#04815:0013000000000013
#04812:0013
#0481b:0000130000130000
#04818:16000013
#05019:0013000000000000
#05012:00131300
#0501b:00131300
#05018:0000000000130013
#05015:00000013
#05014:0013000000000000
#04918:2313000023230013
#04915:0000231300000013
#04912:13002313
#0491b:00130023
#05118:0013001300130000
#05118:0000001300000000
#05115:0013001300001300
#0511b:1300130000000013
#05112:1300000013000013
#00515:000000000000000000000000130000000000230063630063
#0051b:000000000000230063630063000000000000000000000000
#00518:00000000000000000000002300000000
#00718:000000000000000000000000130000000000230063630000
#00712:000000000000230063630063000000000000000000000000
#00715:00000000000000000000002300000000
#01212:00000000000000000000000013535300
#01216:0000135300000000
#01213:0053
#01312:00000000000000000000000013535300
#01316:00000000236363000000000000000000
#01315:53
#01313:0063
#0211b:12
#02118:00120000
#02116:0012
#02113:00000012
#02119:00000032000032000000000000000000
#02114:00000000000000000000003200003200
#04116:0012
#0411c:1212
#04119:00000032120032000000003212003200
#04318:0000000000001212
#04316:00000000000000000000000000120000
#04314:22
#04312:0022
#04317:00000022000000000000000000000000
#0431a:0000002200000000
#0561b:0013
#05612:13
#05618:000000000000000000000000000053530053000000000000
#05615:000053530053000000000000000000000000000000000000
#05715:13
#05718:0013
#05712:000053530053000000000000000000000000000000000000
#0571b:000000000000000000000000000053530053000000000000
#05918:00001363
#05915:13
#05912:000053530053000000000000000000000000000000000000
#0581b:0013
#05812:13
#05818:000000000000000000000000000053530053000000000000
#05815:000053530053000000000000000000000000000000000000
#0541b:00231300
#05412:13000023
#05415:000000000000000023000023000000000000000000230000
#05418:000000000000000000230000000000000000000023000023
#05512:130000000023
#0551b:0000230013000023
#05515:000000000000000023000023000000000023000000000000
#05518:0000002300002300
#05315:0000000013002323
#0531b:000000000000230063630063000000000000000000000000
#05318:000000000000000000000000000000000023000023000023
#0451a:24000014
#04512:24142400
#04518:0024000000000000
#04516:00240024
#04514:0000000000240000
#0251b:13132300
#02512:23000013
#02514:0023000000000000
#02516:00230000
#02517:00000023
#02519:0000000000230000
#00615:000000000000000000000000000000000000230063630063
#00612:000000000000230063630063000000000000000000000000
#02752:0000006300000000
#02758:0000005300000000
#02852:14530000
#01156:0053
#01152:00000053
#0115b:53
#01157:00530000
#02058:62
#02052:12
#0205b:00220000
#02053:0062
#02056:00000022
#02958:00000053
#02955:00000053
#03258:00000000530000000000000000000013
#0325b:00000063
#03255:00000063
#03252:14000000000000000000000000000013
#0325a:14
#01552:6363
#0155b:00630063
#01556:00000063
#01652:13
#01657:13
#05252:53
#0525b:53
#00458:16
#02457:00630000
#0245a:14
#0475b:0000005300000000
#04755:0000006300000000
#0485b:00630000
#04858:16
#04456:00530000
#04452:16
#04958:0000000000000023
#0495b:00130063
#04955:0000000000000023
#04952:13001363
#05152:63
#0515b:00630000
#05155:0023000000000000
#05158:0000002300000000
#0215b:52
#02158:00220000
#02156:0052
#02153:00000022
#04058:12
#04052:5252
#04055:00220022
#0415c:6262
#04159:00220022
#04352:0062
#05452:13
#03558:000000000000000000000000000000000053000000000000
#03555:000000000000000000000000000000000063000000000000
#03552:000000000000000000000053000000000000000000000000
#0365b:13
#03652:13
#04552:14
#0455a:0014
#04556:00540064
#02556:00530000
#02557:00000063
#004320:13
#004350:00230000
#004350:0013
#004320:00000023
#005320:13
#005350:00230000
#0063b0:13
#006380:00230000
#006380:0013
#0063b0:00000023
#0073b0:13
#007380:00230000
#008320:13
#010320:0000000000230000
#0113b0:1323
#011370:00330000
#011361:0013
#011321:00000033
#012361:23
#0123b0:13
#0143b0:0000000000230000
#015320:13
#015360:00230000
#0153b1:00130000
#015371:0023
#015320:0013
#015360:00000033
#016320:23
#0153b1:00000013
#016371:23
#0163c1:0000000000000012
#0173c1:0022000000000000
#017381:00000000000000001200002200000000
#017360:00000000000000000000001200000000
#018360:22
#018340:0000000000120022
#019360:0012000000000000
#019340:00320000
#019320:0000003200002200
#019381:0000001200002200
#020381:1222
#0203a1:00000032000032000000000000000000
#0203b1:00520000
#020330:0012
#020350:00000000000000000000003200003200
#020360:00000052
#021330:22
#0213b1:1222
#021391:00000032000032000000000000000000
#021381:00520000
#021360:0012
#021340:00000000000000000000003200003200
#021330:00000052
#022360:22
#0233b0:00001222
#024370:00130000
#0243b0:0023
#025360:00130000
#025320:0023
#025370:00000013
#0263b0:23
#027320:0000001300000000
#027350:0000000000230000
#027381:0000001300000000
#0273b1:0000000000230000
#028321:00130000
#028361:0023
#029381:00000013
#0303b1:23
#029350:00000013
#030320:23
#0313b0:13230000
#031380:0033000000000000
#031321:00132300
#031351:0000003300000000
#032381:00130000
#032391:003300
#0323a1:0000003300000000
#0323b1:000000000000000000000033000000230000000000000000
#032350:000000000000000000000013000000230000000000000000
#0323b0:00000013
#032390:00000000000000000000000000330000
#032380:00000000000000000000000000000023
#032351:00000013
#032331:00000000000000000000000000330000
#032321:00000000000000000000000000000023
#035321:000000000000000000000013000000000000000000000000
#035351:000000000000000000000000330033330033000000000000
#036321:23
#035380:000000000000000000000000000000000013000000000000
#0363b0:23
#0363a0:00000000000000001200002200000000
#036341:00000000000000000000001200002200
#036380:0000000000000012
#037380:0022000000000000
#037320:0000001200000000
#038320:22
#038340:00000000000000001200002200000000
#0383a1:00000000000000000000001200002200
#038360:0000000000000012
#039360:0022000000000000
#0393c0:0000001200220000
#040320:1252
#040350:00000032520032000000003252003200
#041320:22
#0413c1:1252
#041391:00000032520032000000003252003200
#0423c1:22
#042360:1200002200000000
#042350:0000000012000022
#043340:1200002200000000
#043320:0012
#043360:00000022
#044360:00130000
#044320:0023
#045360:00140000
#0453a0:0024
#045360:00000014
#046320:24
#0473b0:0000001300000000
#047380:0000000000230000
#047351:0000001300000000
#047321:0000000000230000
#0483b1:00130000
#048371:0023
#0493b1:00000013
#049381:0000000000000053
#0503b1:23
#049320:00000013
#049350:0000000000000053
#050320:23
#051320:13230000
#051350:0053000000000000
#0513b1:00132300
#051381:0000005300000000
#0523b1:13
#053381:22
#052320:13
#053360:22
#000980:130000000023000000000000000000000000000000000000
#000920:000000000000000000000000130000000023000000000000
#0019b0:130000000023000000000000000000000000000000000000
#001950:000000000000000000000000130000000023000000000000
#002980:130000000023000000000000000000000000000000000000
#002920:000000000000000000000000130000000023000000000000
#0039b0:130000000023000000000000000000000000000000000000
#003950:00001323
#0049b0:000000000000130000000023000000000000000000000000
#004980:000000000000000000000000000000000000130000000023
#0059b0:000000000000130000000023000000000000000000000000
#005950:000000000000000000000000000000000000130000000023
#006920:000000000000130000000023000000000000000000000000
#006950:000000000000000000000000000000000000130000000023
#007920:000000000000130000000023000000000000000000000000
#007980:0000000000001323
#008980:0000001323000000
#008970:0000000000000013
#009970:23
#009980:0000001323000000
#009970:0000000000000013
#010970:23
#012960:0000135300000000
#012930:0023
#012920:0000000000001353
#013950:23
#013960:0000135300000000
#013930:0023
#013920:0000000000001353
#014950:23
#033920:0013000000000000
#033950:000000000000530000000023000000000000000000000000
#033980:000000000000000000000000130000530023000000000000
#033950:000000000000000000000000000000000000130000000023
#0349b0:000000000000130000000023000000000000000000000000
#034920:000000000000000000000000000000000000130000000023
#0359b0:000000000000130000000023000000000000000000000000
#0539b0:000000000000130000000023000000000000000000000000
#056920:13
#056950:000053000023000000000000000000000000000000000000
#0569b0:0013
#056980:000000000000000000000000000053000023000000000000
#057950:13
#057920:000053000023000000000000000000000000000000000000
#057980:0013
#0579b0:000000000000000000000000000053000023000000000000
#058920:13
#058950:000053000023000000000000000000000000000000000000
#0589b0:0013
#058980:000000000000000000000000000053000023000000000000
#059950:13
#059920:000053000023000000000000000000000000000000000000
#059980:00001323
