This file was generated by Ched 2.7.0.0.
#TITLE ""
#ARTIST ""
#DESIGNER ""
#DIFFICULTY 0
#PLAYLEVEL
#SONGID ""
#WAVE ""
#WAVEOFFSET 0
#JACKET ""
#REQUEST "ticks_per_beat 480"
#00002: 4
#BPM01: 118
#00008: 01
#TIL00: ""
#VOLUME: ""
#HISPEED 00
#MEASUREHS 00
#0001b:130053530053000000000000000000000000000000000000
#00018:000000000000000000000000530053530053000000000000
#03212:13
#03218:0000130000331300
#0321b:000000000000000000000013000000000000000000000000
#03219:003300
#0321a:00000000000033000000000000330000
#01015:0000000000130013
#01018:00000013
#03415:1313000000000000
#03412:0000000013130000
#0341b:0000232300000000
#03418:0000000000002323
#00112:130053530053000000000000000000000000000000000000
#00115:000000000000000000000000530053530053000000000000
#0021b:130053530053000000000000000000000000000000000000
#00218:000000000000000000000000530053530053000000000000
#00312:130053530053000000000000000000000000000000000000
#00315:00005363
#0081b:00130000
#00818:0000001300000000
#00815:00000013
#00812:1300000000000013
#00810:41
#00915:00000013
#00912:0000000000000013
#0091b:00230000
#00918:0000002300000000
#01212:0000001300000000
#01218:0000000000000013
#01215:00000000130000000000000000130000
#0121b:00000013
#01315:00000000230000000000000000130000
#01318:00000000002300000000000000001300
#0131b:00000013
#01312:0000002300000000
#01816:14
#0181a:0024
#01916:14
#01912:0024
#02012:1400000000000034
#02016:0000003414000000
#0201a:0024
#02014:00000034000000000000003400000000
#0211a:1400000000000034
#02116:0000003414000000
#02112:0024
#02118:00000034000000000000003400000000
#02212:14
#0221a:0014
#02214:00000034000000000000000000000000
#02216:0000003400000034
#02218:00000000000000000000003400000000
#0041a:14
#00418:000000000000000000000000000000000000230063630063
#00415:000000000000230063630063000000000000000000000000
#00412:00000063
#01118:1313
#0111b:00130013
#01418:0000000000130013
#01415:00000013
#01515:1313
#01512:00130013
#03315:0013000000130000
#03318:00130013
#0331b:0000001300000013
#03312:0013
#03515:1313000000000000
#03512:000000000000000000000000130053530053000000000000
#0351b:0000232300000000
#03618:1200323232000000
#0361a:0000000000000032
#03619:00000000000000000000003200000000
#03610:41
#03615:53
#0371b:12
#03718:0032323200000000
#03816:1200323232000000
#0381f:11
#03814:0000000000000032
#03815:00000000000000000000003200000000
#03913:12
#03916:0032323200323232
#04018:12000000000000000000003200003200
#0401b:00000032000032001200000000000000
#0421b:00000032000032001200000000000000
#04218:22000000000000000000003200003200
#0431a:00000012000000000000000000000000
#04319:000000000000000000000000000000000012320000000000000000000000000000000000000000000000000000000000
#04318:12
#02418:0000000000130000
#02415:0013000000001300
#0241b:0000000000000013
#0241a:24
#02412:00330000
#02410:41
#02615:0013000000130000
#02618:00131313
#0261b:0000000000000013
#02612:00130000
#02715:13000013
#02718:0013001300000000
#02712:00130000
#0271b:0000000000000013
#02818:0013000000130000
#02815:00000013
#0281b:0000000000000013
#02812:14
#03015:00131313
#03018:0013000000130000
#03012:0000000000000013
#0301b:00130000
#03010:41
#02912:13000013
#02918:0013000000130000
#02915:00131300
#0291b:0000001300000000
#04415:0000000000130000
#04418:0013000000001300
#04412:2400000000000013
#0441f:21
#0441b:00330000
#04410:0041
#04618:0013000000130000
#04615:00131313
#04612:0000000000000013
#0461b:00130000
#04718:13000013
#04715:0013001300000000
#0471b:00130000
#04712:0000000000000013
#04915:0013000000230000
#04912:0000001300000000
#04918:00232300
#0491b:23000023
#05018:00131313
#05015:0013000000130000
#0501b:0000000000000013
#05012:00130000
#0511b:0013000000000013
#05112:1313
#05115:0000130000130000
#05118:0000001300001300
#05212:13
#05618:130053530053000000000000000000000000000000000000
#05612:000000000000000000000000130053530053000000000000
#05915:00001363
#0591b:130053530053000000000000000000000000000000000000
#0571b:130053530053000000000000000000000000000000000000
#05715:000000000000000000000000130053530053000000000000
#05818:130053530053000000000000000000000000000000000000
#05812:000000000000000000000000130053530053000000000000
#04116:12000000000000000000003200003200
#04113:00000032000032001200000000000000
#04815:0013000000130000
#04818:00000013
#04812:0000000000000013
#0481a:14
#02312:24
#02314:00000034000000000000000000000000
#02316:0000003400000000
#00515:000000000000230063630063000000000000000000000000
#0051b:00630000
#00512:000000000000000000000000000000000063630063630063
#00612:000000000000000000000000000000000000230063630063
#0061b:000000000000230063630063000000000000000000000000
#00618:00000063
#00615:00630000
#0071b:000000000000230063630063000000000000000000000000
#00715:00630000
#00718:000000000000000000000000000000000063630063630000
#0161a:0024
#01610:41
#01712:0024
#02512:2424
#02516:0024000000240000
#0251a:00240024
#03115:00000023
#0451a:2424
#04516:0024000000240000
#04512:00240024
#05318:000000000000230063630063000000000000000000000000
#0531b:000000000000000000000000000000000063630063630063
#0541b:000000000000000000000000000000000000230063630063
#05412:000000000000230063630063000000000000000000000000
#05415:00000063
#05418:00630000
#05512:000000000000230063630063000000000000000000000000
#05518:00630000
#05515:000000000000000000000000000000000063630063630000
#03258:00530053
#0325b:000000000000000000000000000000000000000000005300000000000000000000000000000000000000000000130000
#03252:13
#01856:54
#01956:64
#02056:0054
#02052:54
#0205a:14
#0215a:64
#02156:0064
#02252:54
#0225a:0054
#02352:54
#0045a:14
#01158:6363
#0115b:00630063
#01555:5353
#01552:00530053
#01656:14
#03655:13
#03658:52
#03552:000000000000000000000000000000000053000000000000
#0375b:52
#03856:62
#03953:62
#04058:52
#0405b:0052
#0435a:00000022000000000000000000000000
#04359:000000000000000000000000000000000052000000000000000000000000000000000000000000000000000000000000
#04358:52
#02758:0000005300000000
#02952:00000063
#02455:0053000000000000
#0245a:14
#04755:0000006300000000
#04458:0063000000000000
#04452:14
#0495b:00000053
#05252:53
#04258:52
#0425b:0052
#04156:62
#04153:0062
#02852:14
#0485a:14
#0322f0:00000011
#0332f0:21
#011380:1333
#0113b0:00330033
#012380:23
#015350:1333
#015320:00330033
#016360:24
#0173a0:14
#0183a0:24
#018361:14
#019321:24
#019360:14
#0203a0:24
#020321:1400000000000034
#020341:00000034000000000000003400000000
#020361:0000003434000000
#021321:24
#0213a0:1400000000000034
#021380:00000034000000000000003400000000
#021360:0000003434000000
#0223a0:24
#022321:14
#022341:00000034000000000000000000000000
#022361:0000003424000000
#0223a0:0014
#022380:00000000000000000000003400000000
#022360:0000000000000034
#023360:24
#023321:14
#023341:00000034000000000000000000000000
#023361:0000003434002400
#024351:0013000000000000
#024321:00332300
#027381:0000001300000000
#0273b1:0000000000230000
#028351:00132300
#029321:00000013
#030351:23
#031381:13
#0313b1:0033230000000000
#031320:00130000
#031350:0000003323000000
#031381:0013
#0313b1:0000000000332300
#032381:0000130000333300
#032391:003300
#0323a1:00000000000033000000000000330000
#0323b1:000000000000000000000000000000000000000000003300000000000000000000000000000000000000000000230000
#036381:1200323232000000
#036391:00000000000000000000003200000000
#0363a1:0000000000000032
#0373b1:52
#037381:0032323200000000
#038381:22
#038360:1200323232000000
#038350:00000000000000000000003200000000
#038340:0000000000000032
#039330:52
#039360:0032323200323232
#040360:22
#040381:12000000000000000000003200003200
#0403b1:00000032000032003200000000000000
#041381:22
#041360:12000000000000000000003200003200
#041330:00000032000032003200000000000000
#042360:22
#042381:12000000000000000000003200003200
#0423b1:00000032000032003200000000000000
#043381:32003222
#0433a1:00000032000000000000000000000000
#043391:000000000000000000000000000000000052320000000000000000000000000000000000000000000000000000000000
#044381:0013000000000000
#0443b1:00332300
#047351:0000001300000000
#047321:0000000000230000
#048381:00132300
#0493b1:00000013
#050381:23
#052321:13
#053361:22
#0009b0:130000000053000000000000000000000000000000000000
#000980:000000000000000000000000530000000023000000000000
#001920:130000000053000000000000000000000000000000000000
#001950:000000000000000000000000530000000023000000000000
#0029b0:130000000053000000000000000000000000000000000000
#002980:000000000000000000000000530000000023000000000000
#003920:130000000053000000000000000000000000000000000000
#003950:00005323
#004950:000000000000130000000053000000000000000000000000
#004920:00000023
#004981:000000000000000000000000000000000000130000000053
#0059b1:00230000
#005950:000000000000130000000053000000000000000000000000
#005920:000000000000000000000000000000000053000000000053
#006950:00230000
#0069b1:000000000000130000000053000000000000000000000000
#006981:00000023
#006920:000000000000000000000000000000000000130000000053
#007950:00230000
#0079b1:000000000000130000000053000000000000000000000000
#007981:000000000000000000000000000000000053000000230000
#035921:000000000000000000000000130000000053000000000000
#036951:23
#053981:000000000000130000000053000000000000000000000000
#0539b1:000000000000000000000000000000000053000000000053
#054981:00230000
#054920:000000000000130000000053000000000000000000000000
#054950:00000023
#0549b1:000000000000000000000000000000000000130000000053
#055981:00230000
#055920:000000000000130000000053000000000000000000000000
#055950:000000000000000000000000000000000053000000230000
#056980:130000000023000000000000000000000000000000000000
#056920:000000000000000000000000130000000023000000000000
#0579b0:130000000023000000000000000000000000000000000000
#057950:000000000000000000000000130000000023000000000000
#058980:130000000023000000000000000000000000000000000000
#058920:000000000000000000000000130000000023000000000000
#0599b0:130000000023000000000000000000000000000000000000
#059950:00001323
