This file was generated by Ched 2.7.0.0.
#TITLE ""
#ARTIST ""
#DESIGNER ""
#DIFFICULTY 0
#PLAYLEVEL
#SONGID ""
#WAVE ""
#WAVEOFFSET 0
#JACKET ""
#REQUEST "ticks_per_beat 480"
#00002: 4
#BPM01: 135
#00008: 01
#TIL00: ""
#VOLUME: ""
#HISPEED 00
#MEASUREHS 00
#0091a:14
#00910:41
#04612:14
#0471a:14
#0481a:14
#06718:14
#06710:41
#06818:14
#06914:14
#07014:14
#0711a:14
#0721a:14
#07312:14
#00118:2616
#00212:1616
#00318:16
#00312:0016
#00512:1616
#00618:1616
#00712:16
#00718:0016
#0101a:14
#01112:14
#01212:14
#01318:14
#01418:14
#01514:14
#01614:14
#0171a:14
#01814:14
#0191a:14
#02014:14
#02118:14
#02212:14
#02318:14
#02412:14
#0251a:14
#02510:41
#02614:14
#02718:14
#02812:14
#0291a:14
#03014:14
#03312:2616
#03310:41
#03418:1616
#03512:16
#03518:0016
#03718:1616
#03812:1616
#03918:16
#03912:0016
#04914:14
#04918:0014
#05012:1616
#0501f:21
#05118:16
#05112:0016
#05110:41
#05312:16
#05318:0016
#05518:1616
#05612:1616
#05818:1616
#05912:16
#05918:0016
#05910:41
#06118:16
#06112:0016
#06312:1616
#06418:1616
#06512:16
#06518:0016
#05718:16
#05712:0016
#0411f:11
#04114:24
#04314:24
#04318:0024
#04414:24
#04418:0024
#04512:24
#04218:24
#004380:1626
#008320:1626
#031380:14343434
#032380:24
#036320:1626
#040380:1626
#052380:1626
#054320:1626
#060320:1626
#062380:1626
#066320:1626
#074320:14343424
