This file was generated by Ched 2.7.0.0.
#TITLE ""
#ARTIST ""
#DESIGNER ""
#DIFFICULTY 0
#PLAYLEVEL
#SONGID ""
#WAVE ""
#WAVEOFFSET 0
#JACKET ""
#REQUEST "ticks_per_beat 480"
#00002: 4
#BPM01: 135
#00008: 01
#TIL00: ""
#VOLUME: ""
#HISPEED 00
#MEASUREHS 00
#0411f:11
#04115:26
#06416:00140014
#0641a:2414
#06418:0000000000000014
#06412:14000014140000000000000000000000
#06318:00140014
#06314:0014
#06316:0000000000140014
#0631a:14000000000000141400000000000000
#06312:24000014140000000000000014000000
#03518:13000013
#03512:1313
#0351b:00000013000000000000000000000000
#03515:0000000000130013
#02413:0012
#02415:0000001200000000
#02417:1212120000000000
#02315:00000012
#02213:0012
#02215:0000001200000000
#02217:1212120000000000
#02119:0012
#0211b:0000001200000000
#02117:12120000
#01915:0000000000000012
#01918:0016
#02017:1212120000000000
#0201b:0000001200000000
#02019:0012
#01715:0000000000000012
#01717:12
#0171b:0000001200000000
#01719:0012
#01712:24
#01817:1212120000000000
#01815:0000001200000000
#01813:0012
#03114:0014
#03119:0014
#03113:00140000
#03118:00140000
#03112:14
#03117:14
#03115:00000024
#0311a:00000024
#06116:00000013
#06113:24
#06119:24
#07414:00141400
#07416:1400001400000000
#07412:0014000000002400
#0741a:64646464
#07316:2400000000140000
#07314:0014
#07312:0000001400000000
#0731a:64646464
#07216:0000000014000014
#07214:0014000000001400
#07212:1400000000140000
#0721a:64646464
#07116:2400000000140000
#07114:0014
#07112:6400001400000000
#0711a:00646464
#0701a:0000000014000014
#07018:0014000000001400
#07016:1400000000140000
#07012:64646464
#0691a:2400000000140000
#06918:0014
#06916:0000001400000000
#06912:64646464
#0681a:0000000014000014
#06818:0014000000001400
#06816:1400000000140000
#06812:64646464
#0671a:2400000000140000
#06718:0014
#06716:2400001400000000
#06710:41
#06712:00646464
#06018:000000000000000000000000000000000000000000000000000000000000000000000000000000140000001400000014
#06019:000000000000000000000000000000000000141414141414
#0601a:000000000000000000000000140000000000000000000000000000000000000000000000001400000014000000140000
#06014:000000000000000000000000000000000000000000000000000000000000000000000000000000140000001400000014
#06013:000000000000000000000000000000000000141414141414
#06012:140000000000000000000000000000000000000000000000140000000000000000000000001400000014000000140000
#06016:2424242424000000
#0591a:1400000014000014
#05916:00000014000000002400140000000000
#05918:0000001400000000
#05912:24240024
#05910:41
#05818:0014
#0581a:1414240000242400
#05816:0000141400000000
#05812:2414000000141400
#05814:0024
#05618:00000012
#05616:00140012
#0561a:14000014000000001400000000000000
#05612:24
#05516:0000000000140014
#05518:00000000000000141400000000000000
#05512:1414
#05514:00000014140000000000000000000000
#0551a:24140014
#05016:0000141400000000
#0501a:1414000014000000
#05014:0000000000141400
#05012:2414
#0501f:21
#05018:0000000000242400
#05214:00140000
#0521a:00140014
#05212:1414
#05216:0014000014000000
#05218:1400001400000000
#05116:00000014000000001400000014000000
#05112:14
#05114:0000000000000014
#0511a:24
#05110:41
#0651a:14000000000000140000000000002400
#06512:28000014000000002800000000240000
#06518:0000000000140000
#06516:00000000280000000000000024000024
#06212:0000000000141400
#06218:0013
#0621a:0000000000242400
#05716:00140014
#05712:00000000240000140000140000000000
#0571a:00002424
#0531a:14
#05315:0000000000130000
#05318:0000001300000000
#0531b:00130000
#05312:24
#05414:0000000000141400
#0541b:0013
#05418:0000001300242400
#05412:0013000000000000
#04816:000000000000000000000000000000000000000000000000000000000000000000000000000000000000000000000000140000001400000014000000140000001400001400140014001400140014001400140014001400000000000000000000
#04815:000000000000000000000000000000000000000000000000000000140000001400001400140014001400140000000000
#04817:000000000000000000000000000000000000000000000000001400000014000000140014001400140014001400000000
#04818:1300001300000000
#0481b:0013130000000000
#0471b:2300001300130000
#04718:0013
#04612:1300000013000013
#04615:0013000000131300
#04015:2300001300000000
#04012:00130000
#04016:0000000000000012
#04018:00000013000000000000000012000000
#0401b:1313
#0391b:00000013
#03918:23000000000000131300000000001300
#03915:00000013130000000000130000000000
#03912:13000013
#00216:0000001313000000
#00217:1313000000000000
#00212:1313000000131300
#0021b:0000000013232300
#03615:0000001300000000
#03618:0013000000001300
#0361b:13131300
#03612:13131313
#03418:00130000
#0341b:1313000000131300
#03416:1313000000000000
#03412:0000001313232300
#03417:0013
#03317:24130013
#03312:24000013000000000000000000000000
#03316:00000000000000130000000000000000
#03310:41
#03816:0013
#03812:1300000000131300
#03813:0013000000000000
#03814:00130000
#03815:0000001300000000
#0381b:0000000000232300
#03717:00130000
#03718:0000001300000000
#03719:0013
#0371a:0000000000131400
#0371b:13
#03715:23
#00815:23130000
#0081b:1313
#00818:00000013000000000000000000001200
#00816:00000012
#0071b:00130013
#00712:13000000000000130000000013000000
#00718:2300000013000013
#00715:00000013000000000000130000000000
#00412:00000013
#0041b:00000013
#00419:0033003300000000
#00414:0033003300000000
#0051b:13000013
#0051a:0000000000130000
#00519:0013
#00518:0000001300000000
#00517:00130000
#00515:23
#00315:13
#0031b:0013
#00317:0000000000000013
#00312:00000013000000000000000013000000
#00612:1300000000131300
#00616:0013
#00615:0000001300000000
#00614:00130000
#00613:0013000000000000
#0061b:0000000000232300
#0321c:00000012
#03217:00000012
#06617:00000012
#03015:13130000
#03012:0013000000002400
#03018:0000001300000000
#0301b:0013
#0301a:00240000
#02912:13130024
#02918:1300001300000013
#02915:0013
#0291a:00240000
#02612:00130024
#02615:0013000013000000
#02618:0000001300000000
#0261b:13
#0261a:00240000
#02515:1300001300000000
#02518:0000000000000013
#02512:00001324
#0251b:13
#0251a:00240000
#02510:41
#01312:13
#01318:0000001300130000
#01315:0013
#0131b:23
#01218:1313000000000013
#01215:00001313
#01212:0000000000130000
#01618:00131300
#0161b:0000001300000000
#01615:1313000000000000
#01518:0000001300130000
#01515:0013
#01512:13
#0151b:23
#01418:0013000000000013
#01415:13001313
#01412:0000000000130000
#01112:13
#01118:0000001300130000
#01115:0013
#0111b:23
#00115:00000013
#00118:23000000000000130000000000000000
#0011b:00000013000000000000000000000000
#04515:0000001300130000
#04512:2313
#0281b:0013000000000000
#02812:00130024
#02815:0000001300000000
#02818:1313
#0281a:00240000
#02715:0000000000000013
#02712:00001624
#0271a:00240000
#01018:0013000000000013
#01015:13001313
#01012:0000000000130000
#00918:0000001300130000
#00915:0013
#00912:13
#0091b:23
#00910:41
#04412:002c
#04416:24000024
#04414:00280000
#04316:0026
#04314:00260000
#04318:00000026
#04312:26
#04212:26
#04218:26
#04912:00000028
#0575a:4414
#05752:34
#05652:1414
#05658:00000022
#05656:00640022
#0565a:0014
#04956:14
#04952:00000018
#04052:00531300
#04055:1300002300000000
#0405b:0013
#0325b:0013
#03252:0013
#0325c:00000062
#03257:00000062
#00852:0013
#00855:13630000
#0085b:0013
#07152:14
#07156:54
#0745a:00000014
#07452:00000014
#06153:14
#06159:14
#06156:00000063
#03958:13
#07356:14
#03155:00000034
#0315a:00000044
#03154:0034
#03159:0044
#03153:00340000
#03158:00440000
#03152:34
#03157:44
#0695a:14
#06756:64
#0675a:14
#0555a:14
#05352:14
#0515a:14
#05156:0054
#0475b:13
#04552:13
#04452:001c
#04456:14000014
#04454:00180000
#04356:0016
#04354:00160000
#04358:00000016
#04352:16
#04252:16
#04258:16
#04155:16
#03755:13
#0375a:00000064
#00758:13
#00555:13
#03357:14530000
#03352:14
#01752:14
#00158:13
#0645a:14
#06452:00540000
#06352:14
#06556:00180000
#06552:1818
#05952:14
#05956:0000000000240000
#0595a:0064
#03558:13
#03552:5353
#03555:0000000000230000
#01958:0016
#06058:000000000000000000000000000000000000000000000000000000000000000000000000000000240000002400000024
#06059:000000000000000000000000000000000000646464646464
#0605a:000000000000000000000000000000000000000000000000000000000000000000000000002400000024000000240000
#06054:000000000000000000000000000000000000000000000000000000000000000000000000000000240000002400000024
#06053:000000000000000000000000000000000000545454545454
#06052:000000000000000000000000000000000000000000000000000000000000000000000000002400000024000000240000
#05856:00240000
#05852:0054000000000000
#05056:00240000
#0505a:0064000000000000
#05252:0054
#0525a:00000014
#04856:000000000000000000000000000000000000000000000000000000000000000000000000000000000000000000000000640000006400000064000000640000006400006400640064006400640064006400640064006400000000000000000000
#04855:000000000000000000000000000000000000000000000000000000240000002400002400240024002400240000000000
#04857:000000000000000000000000000000000000000000000000002400000024000000240024002400240024002400000000
#03458:00230000
#0345b:0063000000000000
#00257:0053000000000000
#06657:00000012
#01352:13
#01552:13
#01152:13
#0035b:0063
#02752:0016
#00952:13
#001320:13000023000000000000000000000000
#001350:00000000130000230000000000000000
#001320:0000000013230000
#0013b1:0000000000132300
#002371:0013000000000000
#0023b1:0000002300000000
#0033b1:13000023000000000000000000000000
#003381:0000132300000000
#003350:0000001323000000
#0033b1:0013
#003371:00000023
#004321:1323
#004341:0033003300000000
#004351:00330000
#0043b0:1323
#004390:0033003300000000
#004380:00330000
#005330:0000145454542400
#005320:0000000000000000005400000054000000540000005400000000000000000000
#0063a0:1454545424000000
#006390:0054000000540000005400000054000000000000000000000000000000000000
#008350:00130000
#008320:0023
#009380:00000013
#010380:23
#010380:00132300
#011320:00000013
#012320:23
#012380:00132300
#013380:00000013
#014380:23
#014380:00132300
#015380:00000013
#016380:23
#0323b0:13530000000000532300000000000000
#0323a0:0053000053000000000000005300005300000000000000000000000000000000
#032390:0000005300005300530053000053000000000000000000000000000000000000
#032380:0000000000530053005300530000000000000000000000000000000000000000
#032321:13530000000000532300000000000000
#032331:0053000053000000000000005300005300000000000000000000000000000000
#032341:0000005300005300530053000053000000000000000000000000000000000000
#032351:0000000000530053005300530000000000000000000000000000000000000000
#0323c1:00000012
#033371:24
#032370:00000012
#033320:24
#033370:00130000
#0333b0:00000000000000230000000000000000
#0333b0:0013
#033380:0000000000230000
#033351:0000000000130000
#033321:00000023
#0343b1:0013002300000000
#034381:00530000
#035321:13
#035361:00000023000000000000000000000000
#035361:0000132300000000
#0353b0:0000001323000000
#035321:00001323
#035351:0000000000530000
#037321:00140000
#037341:0000000000000000005400000000000054000000000000000000000000000000
#037331:0000005400000000
#037351:0000000000000000000000000054000000000000540000000000000000000000
#037361:0000000000000000000000000000000000540000000000002400000000000000
#037371:0000000000000000000000000000000000000000005400000000000000000000
#0373a0:00000014
#038350:54
#038370:0054000000000000540000000000000000000000000000000000000000000000
#038360:0054000000000000
#038380:0000000000540000000000005400000000000000000000000000000000000000
#038390:0000000000000000005400000000000024000000000000000000000000000000
#0383a0:0000000000000000000000000054000000000000000000000000000000000000
#040320:00132300
#040350:0000005300000000
#0453b0:13535353535353535353535353535353
#0453a0:0053005300530053005300530053005300530053005300530053005300530053
#0463b0:53535353535353535353535353535353
#0463a0:0053005300530053005300530053005300530053005300530053005300530053
#0473b0:23
#045351:0000000000001323
#046351:0000132300000000
#047321:13535353535353535353535353535353
#047331:0053005300530053005300530053005300530053005300530053005300530053
#048321:53535353535353532300000000000000
#048331:0053005300530053005300530053005300000000000000000000000000000000
#0473b0:0000000000001323
#048360:000000000000000000000000000000000000000000000000000000000000000000000000000000000000000000000000140000005400000054000000540000005400005400540054005400540054005400540054005400540000000000000000
#048370:000000000000000000000000000000000000000000000000005400000054000000540054005400540054005400000000
#048350:000000000000000000000000000000000000000000000000000000540000005400005400540054005400540000000000
#049360:24
#049321:120000000000000000000000000000000000000000000000000000000000000000000000000000000000000000000000000000000000000000000000000000000000000000000000000000000000000000000000000000000000000000000000000000000000000000000000000000000000000000000000000000000000000000000000000000000000000000000000000000000000000000000000000000000000000000000000000000000000000000000000000000000000000000000000000000000000000000000000000000000000000000000000000000000000000000000000000000000000000000000000000000000000000000000000000000000000000000000000000000000000000000000000000000000000000000000000000000000000000000000000000000000000000000000000000000000000000000000000000000000000000000000000000000000000000000000000000000000000000000000052330000000000000000000000000000000000000000000000000000000000000000000000000000000000000000000000000000000000000000000000000000000000000000000000000000000000000000000000000000000000000000000000000000000000000000000000000000000000000000000053340000000000000000000000000000000000000000000000000000000000000000000000000000000000000000000000000000000000000000000000000000000000000000000000000000000000000000000000000000000000000000000000000000000000000000000000000000000000000000000000000000000000000000000000000000000000000000000000000000000000000000000000000000000000000000000000000000000000000000000000000000000000000000000000000000000000000000000000000000000000000000000000000000000000000000000000000000000000000000000054350000000000000000000000000000000000000000000000000000000000000000000000000000000000000000000000000000000000000000000000000000000000000000000000000000000000000000000000000000000000000000000000000000000000000000000000000000000000000000000000000000000000000000000000000000000000000000000000000000000000000000000000000000000000000000000000000000000000000000000000000000000000000000000000000000000000000000000000000000000000000000000000000000000000000000000000000000000000000000000055360000000000000000000000000000000000000000000000000000000000000000000000000000000000000000000000000000000000000000000000000000000000000000000000000000000000000000000000000000000000000000000000000000000000000000000000000000000000000000000000000000000000000000000000000000000000000000000000000000000000000000000000000000000000000000000000000000000000000000000000000000000000000000000000000000000000000000000000000000000000000000000000000000000000000000000000000000000000000000000056370000000000000000000000000000000000000000000000000000000000000000000000000000000000000000000000000000000000000000000000000000000000000000000000000000000000000000000000000000000000000000000000000000000000000000000000000000000000000000000000000000000000000000000000000000000000000000000000000000000000000000000000000000000000000000000000000000000000000000000000000000000000000000000000000000000000000000000000000000000000000000000000000000000000000000000000000000000000000000000057280000000000000000000000000000000000000000000000000000000000000000000000000000000000000000000000000000000000000000000000000000000000000000000000000000000000000000000000000000000000000000000000000000000000000000000000000000000000000000000000000000000000000000000000000000000000000000000000000000000000000000000000000000000000000000000000000000000000000000000000000000000000000000000000000000000000000000000000000000000000000000000000000000000000000000000000000000000000000000000000000000000000000000000000000000000000000000000000000000000000000000000000000000000000000000000000000000000000000000000000000000000000000000000000000000000000000000000000000000000000000000000000000000000000000000000000000000000000000000000000000000000000000000000000000000000000000000000000000000000000000000000000000000000000000000000000000000000000000000000000000000000000000000000000000000000000000000000000000000000000000000000000000000000000000000000000000000000000000000000000
#0503a1:0014002400000000
#050361:00540000
#0513a1:0000142400000000
#051320:0000001424000000
#051361:0014
#0513a1:00000024
#052321:0014
#052361:00000024
#053331:0000000000000000130000000053000000000000000000000000000000000000
#053321:0000000000000000005300000000000000000000000000000000000000000000
#053341:0000005300000000
#053351:0023
#053390:0000000000000000000000000000000013000000005300000000000000000000
#053380:0000000000000000000000000000000000530000000000000000000000000000
#0533a0:0000000000530000
#0533b0:00000023
#053331:0000000000000000000000000000000000000000000000001300000000530000
#053321:0000000000000000000000000000000000000000000000000053000000000000
#053341:0000000000000053
#054351:23
#054390:1300000000530000000000000000000000000000000000000000000000000000
#054380:0053000000000000000000000000000000000000000000000000000000000000
#0543a0:0053000000000000
#0543b0:00230000
#054331:0000000000000000130000000053000000000000000000000000000000000000
#054321:0000000000000000005300000000000000000000000000000000000000000000
#054341:0000005300000000
#054351:0023
#056361:00140000
#056321:0024
#056381:00000012
#0573a1:24
#056360:00000012
#057320:24
#058320:0014002400000000
#058360:00540000
#0593a0:00001424
#059360:0000000000540000
#060390:000000000000000000000000000000000000145454545454
#0603a0:000000000000000000000000000000000000000000000000000000000000000000000000005400000054000000540000
#060380:000000000000000000000000000000000000000000000000000000000000000000000000000000540000005400000054
#061390:24
#060331:000000000000000000000000000000000000145454545454
#060321:000000000000000000000000000000000000000000000000000000000000000000000000005400000054000000540000
#060341:000000000000000000000000000000000000000000000000000000000000000000000000000000540000005400000054
#061331:24
#061321:00130000
#061341:0000000000000000005300002300000000000000000000000000000000000000
#061331:00000000005300000000000000000000
#061351:0000000000000000000000530000000000000000000000000000000000000000
#061380:0000001300000000
#0613a0:0000000000000000000000000053000023000000000000000000000000000000
#061390:00000000000000530000000000000000
#0613b0:0000000000000000000000000000005300000000000000000000000000000000
#061321:0013
#061341:0000000000000000000000000000000000530000230000000000000000000000
#061331:00000000000000000053000000000000
#061351:0000000000000000000000000000000000000053000000000000000000000000
#061380:0000000000130000
#0613a0:0000000000000000000000000000000000000000005300002300000000000000
#061390:00000000000000000000005300000000
#0613b0:0000000000000000000000000000000000000000000000530000000000000000
#061361:00000013
#062321:23
#062370:13
#062390:0053000023000000000000000000000000000000000000000000000000000000
#062380:00530000000000000000000000000000
#0623a0:0000005300000000000000000000000000000000000000000000000000000000
#062321:0013000000000000
#062341:0000000000530000230000000000000000000000000000000000000000000000
#062331:00000053000000000000000000000000
#062351:0000000000000053000000000000000000000000000000000000000000000000
#062380:00130000
#0623a0:0000000000000000005300002300000000000000000000000000000000000000
#062390:00000000005300000000000000000000
#0623b0:0000000000000000000000530000000000000000000000000000000000000000
#062331:0000001300000000
#062351:0000000000000000000000000053000023000000000000000000000000000000
#062341:00000000000000530000000000000000
#062361:0000000000000000000000000000005300000000000000000000000000000000
#064321:00140000
#064361:0024
#0673a1:0000000000001424
#0683a1:0000142400000000
#069361:0000000000001424
#0703a1:0000142400000000
#071361:0000000000001424
#072361:0000142400000000
#073361:0000000000001424
#067960:14
#067920:00540000
#071920:24
#071961:14
#0719a1:00540000
#0749a1:00000024
