This file was generated by Ched 2.7.0.0.
#TITLE ""
#ARTIST ""
#DESIGNER ""
#DIFFICULTY 0
#PLAYLEVEL
#SONGID ""
#WAVE ""
#WAVEOFFSET 0
#JACKET ""
#REQUEST "ticks_per_beat 480"
#00002: 4
#BPM01: 135
#00008: 01
#TIL00: ""
#VOLUME: ""
#HISPEED 00
#MEASUREHS 00
#00912:1313
#00918:0000000000131300
#0091b:2300001300000000
#00910:41
#01015:0000000000130013
#01012:1313
#01018:0013130000001300
#05018:0000001400002400
#05012:1414
#0501a:2414
#05014:0014000000240000
#0501f:21
#05112:1400001400000014
#05114:00000014000000000000000000000000
#05118:00140000
#0511a:2414
#05110:41
#02518:1300001300000000
#02515:0013
#02512:13
#0251b:0000000000000013
#02510:41
#02615:0013001300000000
#02612:00130000
#02618:1313
#0281b:0013
#02818:0000001300000000
#02815:13130000
#02812:0013000000000000
#02918:13
#02915:00131300
#0291b:0000001300000000
#02912:1300000000000013
#0301b:0013
#03018:0013001300000000
#03015:13130000
#05714:00000000000000140000000000000000
#05712:0000240000140000
#0571a:00140024
#05718:0024
#05914:0000240000000014
#05918:00000014000000000000000024000000
#0591a:1400001400000000
#05912:24
#05916:0024
#05910:41
#05212:1414
#05216:00000014
#0521a:1414
#05218:0014001400000000
#05214:00140000
#05812:2400001400000000
#0581a:1414000024000000
#05814:0000000000240000
#05818:00000024
#05816:00240000
#0631a:24000014000000000000140000000000
#06312:1400140000000014
#06318:00000000000000140000000000000000
#06314:0014
#06316:00000014
#00312:00000013000000000000000000001300
#0031b:1313
#00315:1300001300000000
#00318:00130000
#00715:00000013000000130000000000001300
#00718:00131300
#00712:2300000000130000
#0071b:23000013
#0021b:1313
#00212:1313
#00215:0013000000230000
#00218:0000001300002300
#00118:00000000000000130000000013000000
#0011b:23000013000000000000000000000000
#00115:0000130000130000
#00112:2313
#01112:1313
#01118:0000000000130000
#0111b:2300001300000000
#01115:00000013
#01615:1313
#0161b:00130000
#01618:0013001300000000
#00612:13
#00615:0013001300002300
#00618:0000130000230000
#0061b:0013
#0051b:00130000
#00515:2300001300000000
#00518:00001313
#00512:0000000000130000
#00418:13130013
#00415:0013001300000000
#00412:0013
#0041b:0013
#0531a:14140000
#05318:0000001400000000
#05316:0014
#05314:0000000000140000
#05312:24000014
#05512:1414
#05518:00000014000000000000140000001400
#05514:00140014
#0551a:24000000000000140000000000000000
#0651a:1400000000000014
#06514:00000000240000140000000000000000
#06512:2400000000140000
#06518:00000014000000002400000000000000
#06516:00000024
#0561a:14140000
#05612:24000014000000000000000000000000
#06012:1424
#06018:0024000000000000
#06016:00240000
#06014:0000002400000000
#0601a:24
#06412:1414
#06412:0014
#06414:00000014000000000000000000000000
#06418:00140000
#0641a:2414
#06416:00000014
#06712:0000001400000000
#06716:0014
#0671a:2400000000141400
#06710:41
#06816:1400000014000014
#0681a:0014140000140000
#06812:00000014
#03112:16
#03114:00160000
#03116:0016
#03118:00000026
#01218:0013130000001300
#01212:1313
#01215:0000000000130013
#01312:1313
#01318:0000000000131300
#0131b:2300001300000000
#01415:0000000000130013
#01412:1313
#01418:0013130000001300
#01512:1313
#01518:0000000000131300
#0151b:2300001300000000
#02718:0000000000000013
#02712:0016
#03218:00000013
#03215:00000013
#0351b:00000013000000000000000000001300
#03512:1313
#03518:1300001300000000
#03515:00130000
#03918:00000013000000130000000000001300
#03915:00131300
#0391b:2300000000130000
#03912:23000013
#03412:1313
#0341b:1313
#03418:0013000000230000
#03415:0000001300002300
#03315:00000000000000130000000013000000
#03312:24000013000000000000000000000000
#03318:0000130000130000
#0331b:0013
#0331a:24
#03310:41
#0381b:13
#03818:0013001300002300
#03815:0000130000230000
#03812:0013
#03712:00130000
#03718:2300001300000000
#03715:00001313
#0371b:0000000000130000
#03615:13130013
#03618:0013001300000000
#0361b:0013
#03612:0013
#04715:0000001300131300
#04718:0013
#0471b:23
#04815:0013130000000000
#04818:1300001300000000
#04812:000000000000000000000000000000000000000000000000000000000000000000000000000000000000000000000000160000001600000016000000160000001600001600160016001600160016001600160016001600000000000000000000
#04813:000000000000000000000000000000000000000000000000001600160016001600161616161616161616161600000000
#05412:14
#05414:0014000000240000
#05416:00140000
#05418:0000001400002400
#0541a:0014
#06118:0000001400000000
#06114:0000000000140000
#0611a:24140014
#06112:24140014
#06116:0014
#06214:0014000000240000
#06218:0000001400002400
#06212:1414
#0621a:1414
#06216:00140000
#06912:0000001400001400
#06916:0014
#0691a:2400000000140000
#07016:1400000014000014
#0701a:0014140000140000
#07012:00000014
#06616:14
#01918:0016
#01912:002c002c
#04618:0013130000131300
#04615:1300000013000013
#04518:0000001300131300
#04515:0013
#04512:23
#07112:0000001400000000
#07116:0014
#0711a:2400000000141400
#07216:1400000014000014
#0721a:0014140000140000
#07212:00000014
#07312:0000001400000000
#07316:0014
#0731a:2400000000141400
#07416:14141400
#0741a:0014000000002400
#07412:0000001400002400
#0411f:11
#04116:24
#04912:0000002c
#01712:232c002c
#0171b:23
#0421a:24
#04212:24
#04312:24
#0431a:00000024
#04318:00240000
#04314:0024
#04418:00260000
#04412:2428
#0441a:00000024
#01812:002c002c
#02012:002c002c
#02112:002c002c
#02212:002c002c
#02312:002c002c
#02412:002c002c
#07452:00000014
#0745a:00000014
#04952:0000001c
#05758:0014
#05752:14
#0575a:14
#00855:0013
#00858:0013
#0035b:0063
#0015b:13
#00152:13
#0335a:14
#03352:14
#04156:14
#0425a:14
#04252:14
#04352:14
#0435a:00000014
#04358:00140000
#04354:0014
#04458:00160000
#04452:1418
#0445a:00000014
#0675a:14
#0695a:14
#0325a:0014
#03252:0014
#03258:00000053
#03255:00000063
#03552:0053
#04058:0013
#04055:0013
#0515a:0064
#0565a:00640000
#05656:0014
#06657:00000012
#06656:54
#04852:000000000000000000000000000000000000000000000000000000000000000000000000000000000000000000000000560000005600000056000000560000005600005600560056005600560056005600560056005600000000000000000000
#04853:000000000000000000000000000000000000000000000000006600660066006600666666666666666666666600000000
#01958:0016
#02752:0016
#0175b:13
#01752:13
#0615a:14
#06152:14
#0475b:13
#04552:13
#0715a:14
#0735a:14
#0033b0:0013
#003380:00000023
#008380:1323
#008351:00132300
#0323a1:14545454545454542400000000000000
#032381:0054005400540054005400540054005400000000000000000000000000000000
#032320:14545454545454542400000000000000
#032340:0054005400540054005400540054005400000000000000000000000000000000
#032380:00000013
#0333a0:24
#032351:00000013
#033321:24
#035321:0013
#035351:00000023
#040351:1323
#040380:00132300
#048320:000000000000000000000000000000000000000000000000000000000000000000000000000000000000000000000000000000000000000000000000000000000000000000000000000000000000000000000000000000000000000000000000000000000000000000000000000000000000000000000000000000000000000000000000000000000000000000000000000000000000000000000000000000000000000000000000000000000000000000000000000000000000000000000000000000000000000000000000000000000000000000000000000000000000000000000000000000000000000000000000000000000000000000000000000000000000000000000000000000000000000000000000000000000000000000000000000000000000000000000000000000000000000000000000000000000000000000000000000000000000000000000000000000000000000000000000000000000000000000000000000000000000000000000000000000000000000000000000000000000000000000000000000000000000000000000000000000000000000000000000000000000000000000000000000000000000000000000000000000000000000000000000000000000000000000000000000000000000000000000000000000000000000000000000000000000000000000000000000000000000000000000000000000000000000000000000000000000000000000000000000000000000000000000000000000000000000000000000000000000000000000000000000000000000000000000000000000000000000000000000000000000000000000000000000000000000000000000000000000000000000000000000000000000000000000000000000000000000000000000000000000000000000000000000000000000000000000000000000000000000000000000000000000000000000000000000000000000000000000000000000000000000000000000000000000000000000000000000000000000000000000000000000000000000000000000000000000000000000000000000000000000000000000000000000000000000000000000000000000000000000000000000000000000000000000000000000000000000000000000000000000000000000000000000000000000000000000000000000000000000000000000000000000000000000000000000000000000000000000000000000000000000000000000000000000000000000000000000000000000000000000000000000000000000000000000000000000000000000000000000160000000000000000000000000000000000000000000000000000000000000000000000000000000000000000000000000000000000000000000000000000000000000000000000000000000000000056000000000000000000000000000000000000000000000000000000000000000000000000000000000000000000000000000000000000000000000000000000000000000000000000000000000000005600000000000000000000000000000000000000000000000000000000000000000000000000000000000000000000000000000000000000000000000000000000000000000000000000000000000000560000000000000000000000000000000000000000000000000000000000000000000000000000000000000000000000000000000000000000000000000000000000000000000000000000000000000056000000000000000000000000000000000000000000000000000000000000000000000000000000000000000000000000000000000000000000000056000000000000000000000000000000000000000000000000000000000000000000000000000000560000000000000000000000000000000000000000000000000000000000000000000000000000005600000000000000000000000000000000000000000000000000000000000000000000000000000056000000000000000000000000000000000000000000000000000000000000000000000000000000560000000000000000000000000000000000000000000000000000000000000000000000000000005600000000000000000000000000000000000000000000000000000000000000000000000000000056000000000000000000000000000000000000000000000000000000000000000000000000000000560000000000000000000000000000000000000000000000000000000000000000000000000000005600000000000000000000000000000000000000000000000000000000000000000000000000000056000000000000000000000000000000000000000000000000000000000000000000000000000000560000000000000000000000000000000000000000000000000000000000000000000000000000000000000000000000000000000000000000000000000000000000000000000000000000000000000000000000000000000000000000000000000000000000000000000000000000000000000000000000000000000000000000000000000000000000000000000000000000000000000000000000000000000000000000000000000000000000000000000056
#048330:000000000000000000000000000000000000000000000000005600560056005600565656565656565656565600000000
#049320:3700000000000000000000000000000000000000000000000000000000000000000000000000000000000000000000000000000000000000000000000000000000000000000000000000000000000000000000000000000000000000000000000000000000000000000000000000000000000000000000000000000000000000000000000000000000000000000000000000000000000000000000000000000000000000000000000000000000000000000000000000000000000000000000000000000000000000000000000000000000000000000000000000000000000000000000000000000000000000000000000000000000000000000000000000000000000000000000000000000000000000000000000000000000000000000000000000000000000000000000000000000000000000000000000000000000000000000000000000000000000000000000000000000000000000000000000000000000000000000000573800000000000000000000000000000000000000000000000000000000000000000000000000000000000000000000000000000000000000000000000000000000000000000000000000000000000000000000000000000000000000000000000000000000000000000000000000000000000000000000583900000000000000000000000000000000000000000000000000000000000000000000000000000000000000000000000000000000000000000000000000000000000000000000000000000000000000000000000000000000000000000000000000000000000000000000000000000000000000000000000000000000000000000000000000000000000000000000000000000000000000000000000000000000000000000000000000000000000000000000000000000000000000000000000000000000000000000000000000000000000000000000000000000000000000000000000000000000000000000000593a000000000000000000000000000000000000000000000000000000000000000000000000000000000000000000000000000000000000000000000000000000000000000000000000000000000000000000000000000000000000000000000000000000000000000000000000000000000000000000000000000000000000000000000000000000000000000000000000000000000000000000000000000000000000000000000000000000000000000000000000000000000000000000000000000000000000000000000000000000000000000000000000000000000000000000000000000000000000000000005a3b000000000000000000000000000000000000000000000000000000000000000000000000000000000000000000000000000000000000000000000000000000000000000000000000000000000000000000000000000000000000000000000000000000000000000000000000000000000000000000000000000000000000000000000000000000000000000000000000000000000000000000000000000000000000000000000000000000000000000000000000000000000000000000000000000000000000000000000000000000000000000000000000000000000000000000000000000000000000000000005b3c00000000000000000000000000000000000000000000000000000000000000000000000000000000000000000000000000000000000000000000000000000000000000000000000000000000000000000000000000000000000000000000000000000000000000000000000000000000000000000000000000000000000000000000000000000000000000000000000000000000000000000000000000000000000000000000000000000000000000000000000000000000000000000000000000000000000000000000000000000000000000000000000000000000000000000000000000000000000000000000002c0000000000000000000000000000000000000000000000000000000000000000000000000000000000000000000000000000000000000000000000000000000000000000000000000000000000000000000000000000000000000000000000000000000000000000000000000000000000000000000000000000000000000000000000000000000000000000000000000000000000000000000000000000000000000000000000000000000000000000000000000000000000000000000000000000000000000000000000000000000000000000000000000000000000000000000000000000000000000000000000000000000000000000000000000000000000000000000000000000000000000000000000000000000000000000000000000000000000000000000000000000000000000000000000000000000000000000000000000000000000000000000000000000000000000000000000000000000000000000000000000000000000000000000000000000000000000000000000000000000000000000000000000000000000000000000000000000000000000000000000000000000000000000000000000000000000000000000000000000000000000000000000000000000000000000000000000000000000000000000000
#0513a0:0014
#051360:00000024
#0563a0:00140000
#056360:0024
#0563a0:00000014
#0573a0:24
#056321:00000014
#057321:24
#0603a1:00000000000000000000000014545454
#060391:0000000000000000000000000000000000000000000000000054005400540054
#0613a1:24
#060320:00000000000000000000000014545454
#060330:0000000000000000000000000000000000000000000000000054005400540054
#061320:24
#066360:14
#066370:00000022
