This file was generated by Ched 2.7.0.0.
#TITLE ""
#ARTIST ""
#DESIGNER ""
#DIFFICULTY 0
#PLAYLEVEL
#SONGID ""
#WAVE ""
#WAVEOFFSET 0
#JACKET ""
#REQUEST "ticks_per_beat 480"
#00002: 4
#BPM01: 134
#00008: 01
#TIL00: ""
#VOLUME: ""
#HISPEED 00
#MEASUREHS 00
#00314:14
#00418:14
#00512:14
#00814:14
#00918:14
#01218:14
#01314:14
#0141a:14
#01410:41
#0151a:14
#01612:14
#01712:14
#01818:14
#01914:14
#02212:0016
#02218:26
#02210:41
#02318:16
#02312:0016
#02418:1616
#02512:1616
#02618:16
#02612:0016
#02718:16
#02712:0016
#02818:1616
#03014:0014
#0301a:24
#03010:00000041
#03118:14
#03112:0014
#0321a:14
#03214:0014
#03418:0014
#03412:14
#03514:14
#0351a:0014
#04818:0016
#04812:16000026
#0481f:00000021
#04918:16000016
#04912:0016
#04910:0041
#05012:16
#05218:0016
#05212:00000016
#05318:16000016
#05312:0016
#05412:16
#0561a:0014
#05714:14
#0571a:0014
#0581a:14
#05812:0014
#05918:14
#0601a:0014
#0611a:14
#06112:0014
#06212:14
#06218:0024
#06210:0041
#06714:0014
#0671a:14
#06818:0014
#06814:14
#06912:0014
#06918:14
#07012:14
#0701a:0024
#0401f:11
#00018:26
#00112:26
#0021a:24
#03613:24
#03719:24
#03813:24
#03919:24
#06314:0024
#0641a:0024
#06512:0024
#0661a:0024
#07113:00000024
#07119:00000024
#00610:41
#0063a0:14
#0073a0:24
#010320:14
#011320:24
#0203a0:1424
#021320:1424
#029320:1626
#033380:1424
#039390:1424
#040320:1434
#041320:3424
#0423a0:1434
#0433a0:3424
#044340:14
#044330:0034
#045320:3424
#046380:14
#046390:0034
#0473a0:3424
#050380:0016
#051380:26
#051320:0016
#052320:26
#054380:0016
#055380:26
#055320:0016
#056320:26
#059320:0014
#060320:24
#065320:0014
#066320:24
#0703a0:0014
#0713a0:24
