This file was generated by Ched 2.7.0.0.
#TITLE ""
#ARTIST ""
#DESIGNER ""
#DIFFICULTY 0
#PLAYLEVEL
#SONGID ""
#WAVE ""
#WAVEOFFSET 0
#JACKET ""
#REQUEST "ticks_per_beat 480"
#00002: 4
#BPM01: 134
#00008: 01
#TIL00: ""
#VOLUME: ""
#HISPEED 00
#MEASUREHS 00
#00012:240000000000000000000000000000000000000000000000130000000000005300000000000000000000000000000000000000000000000000000000000000000000000000000000530000000000005300000000000000000000000000000000
#0001a:000000000000000000000000240000000000000000000000000000000000000000000000000000000000000000000000000000000000000000000000000000000000000000000000000000000000002400000000000000000000000000000000
#00014:000000000000000000000000000000000000000000000000000000000000000000000000530000000000005300000000000000000000000000000000530000000000005300000000000000000000000000000000000000000000000000000000
#00016:000000000000000000000000000000000000000000000000000000000000000000000000000000000000000000000000530000000000005300000000000000000000000000000000000000000000000000000000000000000000000000000000
#00117:13
#00118:000000000000000000000000000000000000001300000000000000000000000000000000000000000000000000000000000000000000000000000000000000000000000000000000000000000000000000000000000000000000000000000000
#00119:0000001300000000
#0011a:000000000000000000000000000000000000000000000000000000000000000000000000000000000000000000000000000000000000001300000000000000000000000000000000000000000000000000000000000000000000000000000000
#0011b:00000013
#00114:00000000000024000000000000000012
#00112:24
#00113:000000000000000000000000000000000000002400000000000000000000000000000000000000000000000000000000000000000000000000000000000000000000000000000000000000000000000000000000000000000000000000000000
#00115:000000000000000000000000000000000000000000000000000000000000000000000000000000000000000000000000000000000000002400000000000000000000000000000000000000000000000000000000000000000000000000000000
#00116:00000024
#00214:00130000
#00218:0000000013232300
#00219:13
#00212:260000000000000000000000000000000000000000000000000000000000005300000000530000000000005300000000000000000000000000000000000000000000000000000000000000000000000000000000000000000000000000000000
#00215:000000000000000000000000000000000000000000000000000000000000000000000000000000000000000000000000000000000000002300000000000000000000002300000000000000000000002300000000000000000000000000000000
#0021b:000000000000005300000000530000000000005300000000000000000000000000000000000000000000000000000000000000000000000000000000000000000000000000000000000000000000000000000000000000000000002300000000
#00315:1300000000230000
#00316:0013
#00318:000000000000000000000000000000000000000000000000130000000000000000000000000000000000000000000000000000000000000000000000000000000000002300000000000000000000000000000000000000000000000000000000
#00319:000000000000000000000000000000000000000000000000000000000000000000000000000000000000000000000000000000000000002300000000000000000000000000000000000000000000000000000000000000000000000000000000
#00314:00000023
#00317:000000000000000000000000000000000000000000000000000000000000000000000000000000000000000000000000000000000000000000000000000000000000000000000000000000000000002300000000000000000000000000000000
#00312:000000000000005300000000530000000000005300000000000000000000000000000000000000000000000000000000000000000000000000000000000000000000000000000000000000000000000000000000000000000000002300000000
#0031b:000000000000000000000000000000000000000000000000000000000000005300000000530000000000005300000000000000000000000000000000000000000000000000000000000000000000000000000000000000000000000000000000
#00417:1313
#00416:000000000000000000000000000000000000000000000000130000000000000000000000000000000000000000000000000000000000000000000000000000000000000000000000000000000000002300000000000000000000000000000000
#00412:000000000000000000000000000000000000000000000000000000000000005300000000530000000000005300000000000000000000002300000000000000000000000000000000000000000000000000000000000000000000000000000000
#00419:0000000000230000
#00414:000000000000000000000000000000000000000000000000000000000000000000000000000000000000000000000000000000000000000000000000000000000000002300000000000000000000000000000000000000000000000000000000
#0041b:000000000000005300000000530000000000005300000000000000000000000000000000000000000000000000000000000000000000000000000000000000000000000000000000230000000000000000000000000000000000002300000000
#00512:000000000000000000000000130000000000000000000000130000000000000000000000000000000000001300000000000000000000000000000000000000000000000000000000000000000000000000000000000000000000000000000000
#00517:000000000000000000000000000000000000000000000000130000000000000000000000000000000000001300000000000000000000000000000000000000000000000000000000000000000000000000000000000000000000000000000000
#00516:0000000000130000
#0051b:0000000000130000
#00515:000000000000000000000000000000000000000000000000000000000000005300000000000000000000000000000000000000000000000000000000000000000000000000000000000000000000000000000000000000000000000000000000
#0051a:000000000000000000000000000000000000000000000000000000000000005300000000000000000000000000000000000000000000000000000000000000000000000000000000000000000000000000000000000000000000000000000000
#00616:00130000
#00617:1313
#0061b:00130000
#00612:2313
#00610:41
#00717:00130000
#00716:1313
#00712:00130000
#0071b:1313
#01012:00130000
#0101b:1313
#01017:00130000
#01016:1313
#0081b:1313
#00815:130000000000000000000000000000000000000000000000000000000000000000000000000000000000000000000000130000000000000000000000000000000000000000000000000000000000000000000000000000000000001300000000
#00812:0000130000131300
#00818:000000000000000000000000000000000000000000000000130000000000000000000000000000000000000000000000000000000000000000000000000000000000001300000000000000000000000000000000000000000000000000000000
#0091b:1313
#00915:000000000000001300000000000000000000000000000000000000000000000000000000000000000000000000000000130000000000000000000000000000000000000000000000000000000000000000000000000000000000000000000000
#00912:0000130000131300
#00918:000000000000000000000000000000000000000000000000130000000000000000000000000000000000000000000000000000000000000000000000000000000000001300000000000000000000000000000000000000000000000000000000
#01218:1313
#01212:130000000000000000000000000000000000000000000000000000000000000000000000000000000000000000000000130000000000000000000000000000000000000000000000000000000000000000000000000000000000001300000000
#01215:0000130000131300
#0121b:000000000000000000000000000000000000000000000000130000000000000000000000000000000000000000000000000000000000000000000000000000000000001300000000000000000000000000000000000000000000000000000000
#01318:130000000000000000000000000000000000000000000000000000000000000000000000000000000000000000000000130000000000000000000000000000000000000000000000000000000000000000000000130000000000001300000000
#01312:000000000000001300000000000000000000000000000000000000000000000000000000000000000000000000000000130000000000000000000000000000000000000000000000000000000000000000000000000000000000000000000000
#01315:0000130000131300
#0131b:000000000000000000000000000000000000000000000000130000000000000000000000000000000000000000000000000000000000000000000000000000000000001300000000000000000000000000000000000000000000000000000000
#0111b:00130000
#01112:1313
#01116:00130000
#01117:1313
#01415:130000000000005300000000000000000000000000000000530000000000005300000000000000000000000000000000530000000000000000000000000000000000000000000000000000000000000000000000130000000000001300000000
#01410:41
#01412:000000000000000000000000530000000000005300000000000000000000000000000000530000000000005300000000000000000000000000000000000000000000000000000000000000000000000000000000000000000000000000000000
#01812:130000000000005300000000000000000000000000000000530000000000005300000000000000000000000000000000530000000000000000000000000000000000000000000000000000000000000000000000130000000000000000000000
#01818:000000000000000000000013
#01815:000000000000000000000000530000000000005300000000000000000000000000000000530000000000005300000000000000000000000000000000000000000000000000000000000000000000000000000000000000000000000013000000
#01612:130000000000000000000000000000000000000000000000000000000000000000000000000000000000000000000000530000000000000000000000000000000000001300000000000000000000000000000000140000000000000000000000
#01618:000000000000000000000000130000000000000000000000000000000000001300000000000000000000000000000000000000000000000000000000000000000000000000000000000000000000000000000000000000000000000000000000
#01615:0000131300000000
#0161a:0000000000000024
#01614:000000000053000000000000
#01613:000000000000000000000053000000000000000000000000
#01716:00000000001400000000000000000000
#0171b:0000000000000013
#01715:000000000000000000000013
#01718:000000000000000000000000000000000000000000000013
#01518:130000000000005300000000000000000000000000000000530000000000005300000000000000000000000000000000530000000000000000000000000000000000000000000000000000000000000000000000000000000000000013000000
#0151b:000000000000000000000000530000000000005300000000000000000000000000000000530000000000005300000000000000000000000000000000000000000000000000000000000000000000000000000000130000000000000000000000
#01515:000000000000000000000013
#0191b:130000000000000000000000000000000000000000000000530000000000005300000000000000000000000000000000530000000000000000000000000000000000000000000000000000000000000000000000000000000000000000000000
#01912:000000000000000000000000000000000000000000000000000000000000000000000000000000000000000000000000000000000000000000000000000000000000000000000000000000000000000000000000000000000000002400000000
#0191a:000000005300000000000000000000000000000000000000000000000000000000000000000000000000000000000000000000000000000000000000000000000000000000000000000000000000000000000000000000000000002400000000
#01918:000000000000000000000000530000000000005300000000000000000000000000000000530000000000005300000000000000000000000000000000000000000000000000000000000000000000000000000000000000000000000000000000
#01919:005300000000000000000000
#02015:0000000000000013
#02018:0000000000000013
#02012:0024240000000000
#0201a:0024240000000000
#02212:1414
#02216:0014001400000000
#0221a:24140000
#02210:41
#02312:000000000000000000000000140000000000000000000000000000000000005400000000000000000000001400000000000000000000000000000000000000000000000000000000000000000000000000000000000000000000000000000000
#02317:000000000000000000000000140000000000000000000000000000000000005400000000000000000000001400000000000000000000000000000000000000000000000000000000000000000000000000000000000000000000000000000000
#02315:00140000
#0231a:0000140000120000
#02314:0000000000120000
#02316:00000012
#02413:0013000000000000
#0241a:0013000000140000
#02412:0000000000140000
#02418:00130000
#02414:00000014
#02117:00000012
#02112:000000000000000000000000240000000000000000000000000000000000002400000000000000000000000000000000240000000000000000000000000000000000000000000000000000000000000000000000000000000000000000000000
#0211a:000000000000000000000000240000000000000000000000000000000000002400000000000000000000000000000000240000000000000000000000000000000000000000000000000000000000000000000000000000000000000000000000
#0261a:1414
#02616:0014001400000000
#02612:2400140000140000
#0271a:000000000000000000000000140000000000000000000000000000000000005400000000000000000000001400000000000000000000000000000000120000000000000000000000000000000000000000000000000000000000000000000000
#02715:000000000000000000000000140000000000000000000000000000000000005400000000000000000000001400000000000000000000000000000000000000000000000000000000000000000000000000000000000000000000000000000000
#02717:00140000
#02712:00140000
#02714:0000000000120000
#02718:00000012
#02912:00241313
#0291a:0024002400000000
#02915:0024002400000000
#02917:00240000
#03018:000000000000000000000000130000000000000000000000130000000000000000000000130000000000001300000000000000000000000000000000000000000000000000000000000000000000000000000000000000000000000000000000
#03016:0000000000000014
#03012:240000000000000000000000000000000000000000000000130000000000001300000000000000000000000000000000000000000000000000000000000000000000000000000000240000000000000000000000000000000000000000000000
#03015:000000000000000000000000000000000000000000000000000000000000000000000000000000000000000000000000130000000000001300000000000000000000000000000000000000000000000000000000000000000000000000000000
#0301b:000000000000000000000000000000000000000000000000000000000000000000000000000000000000000000000000000000000000000000000000130000000000001300000000000000000000000000000000130000000000000000000000
#0301a:24
#03010:00000041
#03115:000000130000001300000000000000000000000000000000
#03116:0000000000000014
#0311b:00130000
#0311a:240000001300000000240000
#03114:0000001300000000
#03119:000000000013000000000000
#03113:000000000000000000000013000000000000000000000000
#03112:000000000000000000000000000000000000000000000000000000000000000000000000000000000000000000000000000000000000000000000000130000000000001300000000000000000000000000000000130000000000000000000000
#03218:000000000000000000000000130000000000000000000000130000000000000000000000130000000000001300000000000000000000000000000000000000000000000000000000000000000000000000000000000000000000000000000000
#03216:0000000000000014
#03212:240000000000000000000000000000000000000000000000130000000000001300000000000000000000000000000000000000000000000000000000000000000000000000000000240000000000000000000000000000000000000000000000
#03215:000000000000000000000000000000000000000000000000000000000000000000000000000000000000000000000000130000000000001300000000000000000000000000000000000000000000000000000000000000000000000000000000
#0321b:000000000000000000000000000000000000000000000000000000000000000000000000000000000000000000000000000000000000000000000000130000000000001300000000000000000000000000000000130000000000000000000000
#03415:000000000000000000000000130000000000000000000000130000000000000000000000130000000000001300000000000000000000000000000000000000000000000000000000000000000000000000000000000000000000000000000000
#03416:0000000000000014
#0341b:000000000000000000000000000000000000000000000000130000000000001300000000000000000000000000000000000000000000000000000000000000000000000000000000000000000000000000000000000000000000000000000000
#03418:000000000000000000000000000000000000000000000000000000000000000000000000000000000000000000000000130000000000001300000000000000000000000000000000000000000000000000000000000000000000000000000000
#03412:240000000000000000000000000000000000000000000000000000000000000000000000000000000000000000000000000000000000000000000000130000000000001300000000000000000000000000000000000000000000000000000000
#0341a:24000024
#03518:000000130000001300000000000000000000000000000000
#03515:000000000000000000000000000000000000000000000000000000000000000000000000000000000000000000000000130000000000001300000000000000000000000000000000000000000000000000000000140000000000000000000000
#03512:24130024
#03513:001300
#03519:0000001300000000
#03514:000000000013000000000000
#0351a:000000000000000000000013000000000000000000000000
#0351b:000000000000000000000000000000000000000000000000000000000000000000000000000000000000000000000000000000000000000000000000130000000000001300000000000000000000000000000000130000000000000000000000
#03916:13000024
#03915:000000000000000000000000000000000000001300000000000000000000000000000000000000000000000000000000000000000000000000000000000000000000000000000000000000000000000000000000000000000000000000000000
#03914:0000001300000000
#03913:000000000000000000000000000000000000000000000000000000000000000000000000000000000000000000000000000000000000001300000000000000000000000000000000000000000000000000000000000000000000000000000000
#03912:00000013
#0391a:24000000000000000000000000000012
#03919:000000000000000000000000000000000000002400000000000000000000000000000000000000000000000000000000000000000000000000000000000000000000000000000000000000000000000000000000000000000000000000000000
#03918:0000002400000000
#03917:000000000000000000000000000000000000000000000000000000000000000000000000000000000000000000000000000000000000002400000000000000000000000000000000000000000000000000000000000000000000000000000000
#04012:00130000
#04015:0014
#0401f:11
#0401c:0022
#0411b:00130000
#04117:0014
#04116:0012120000000000
#04112:0022
#04215:00130000
#04212:0014
#04218:0022
#04318:00130000
#0431a:0014
#04312:0012120000000000
#04316:0022
#04414:1222
#04416:0012000000000012
#04418:00120012
#0441a:0000001200120000
#0451a:1222
#04514:1200001200000000
#04518:0012000000000012
#04516:00120012
#04612:14
#04614:001400220000
#04616:000014000014
#04618:0014
#0461a:120014
#04712:00000000000000140000000000000000
#0471a:00000000000000140000000000000000
#04816:13
#04817:00130000
#04819:0000000013132500
#04814:0000000013130000
#0481a:24
#04812:00240025
#0481f:00000021
#0491a:14000054
#04915:1400001400001400
#04912:000000000000000000000000000000000000001400000000000000000000000000000000000000000000000000000000000000000000000000000000000000000000000000000000000000000000005400000000000000000000001400000000
#04917:000000000000000000000000000000000000001400000000000000000000000000000000000000000000000000000000000000000000000000000000140000000000000000000000000000000000005400000000000000000000001400000000
#04910:0041
#05118:000000000000000000000000000000000000000000000000000000000000000000000000000000000000000000000000000000000000000000000000130000000000000000000000000000000000001300000000000000000000000000000000
#05112:000000000000000000000000000000000000000000000000000000000000000000000000000000000000000000000000000000000000000000000000130000000000000000000000000000000000001300000000000000000000000000000000
#05117:0012120000000000
#0511b:000000000000000000000000130000000000000000000000130000000000000000000000000000000000000000000000000000000000000000000000000000000000005300000000000000000000000000000000530000000000000000000000
#05115:000000000000000000000000000000000000000000000000000000000000000000000000000000000000000000000000000000000000000000000000000000000000005300000000000000000000000000000000530000000000000000000000
#05212:2300000014000013
#05216:0014000000140014
#0521a:00000014
#0521b:2300000000130000
#05214:00240000
#05218:00240000
#05217:0024
#05312:14000054
#0531a:000000000000000000000000140000000000001400000000000000000000000000000000000000000000000014000000000000001400000000000000000000000000000000000000000000000000005400000000000000000000001400000000
#05317:0000001400001400
#05319:000000000000000000000000000000000000000000000014001400140014000000000000000000000000000000000000
#05318:000000000000141400000000
#05315:000000000000000000000000000000000000001400000000000000000000000000000000000000000000000000000000000000000000000000000000140000000000000000000000000000000000005400000000000000000000001400000000
#05612:00132413
#0561b:0000000000130000
#05613:000000000000000000000000000000000000000000000000000000000000000000000000000000000000000000000000000000000000000000000000000000000000000000000000000000000000001300000000000000000000000000000000
#05618:0000000000001313
#05619:000000000000000000000000000000000000000000000000000000000000000000000000000000000000000000000000000000000000000000000000000000000000000000000000000000000000000000000000000000000000001300000000
#05615:0000000000130000
#0561a:0024
#05417:0012120000121200
#05412:0013130000000000
#0541b:0000000000131300
#05714:13
#05715:000000000000001300000000000000000000000000000000000000000000000000000000000000000000000000000000000000000000000000000000000000000000000000000000000000001300000000000000000000000000000000000000
#0571a:0013000024000000
#0571b:000000000000000000000000000000000000001300000000000000000000000000000000000000000000000000000000000000000000000000000000000000000000000000000000130000000000000013000000000000000000000000000000
#05716:0000001400000000
#05712:000000000000240000000000000000130000000000130013
#05718:000000000000000000000000000000130000000000001300
#05815:000000000000000000000000130000000000001300000000000000000000000000000000000000000000000000000000000000000000000000000000130000000000000000000000000000000000000000000000000000000000000000000000
#05816:0000001400000000
#0581b:0000000000130000
#05812:0000001324001300
#05813:000000000000000000000000000000000000000000000000000000000000000000000000000000000000000000000000000000000000000000000000000000000000000000000000000000000000001300000000000000000000000000000000
#05818:0000000000001313
#05819:000000000000000000000000000000000000000000000000000000000000000000000000000000000000000000000000000000000000000000000000000000000000000000000000000000000000000000000000000000000000001300000000
#0581a:00240000
#05916:0000001400000000
#0591b:000000000000000000000000000000000000001300000000000000000000000000000000130000000000000000000000000000000000000000000000000000000000000000000000130000000000000000000000000000000000000000000000
#05914:13
#05915:000000000000001300000000000000000000000000000000000000000000000000000000000000000000000000000000000000000000000000000000000000000000000000000000000000000000000000000000000000000000000000000000
#0591a:0013000000000000
#05912:0000240000130000
#05917:0000000000000013
#06016:0000000000130000
#06017:00000013
#06018:000000000000000000000000000000000000000000000000000000000000000000000000000000000000000000000000000000000000000000000000000000000000000000000000000000000000001300000000000000000000000000000000
#06012:0000000024001313
#06013:000000000000000000000000000000000000000000000000000000000000000000000000000000000000000000000000000000000000000000000000000000000000000000000000000000000000000000000000000000000000001300000000
#0601b:1300000000130000
#0601a:0024
#0611a:13240000
#0611b:000000000000001300000000000000000000000000000000000000000000000000000000000000000000000000000000000000000000000000000000000000000000000000000000000000001300000000000000000000000000000000000000
#06115:000000130000000000000000000000000000130013000000
#06116:000000000000000000000000000000000000001300000000000000000000000000000000000000000000000000000000000000000000000000000000000000000000000000000000000000000000000000000000000000000000000000000000
#06117:0000001400130000
#06118:000000000000000000000000000000000000000000130013
#06112:000000000000000000130000240000130000000000001300
#06215:1300001400000000
#06213:000000000000001300000000000000000000000000000000000000000000000000000000000000000000000000000000000000000000000000000000000000000000000000000000000000000000000000000000000000000000000000000000
#0621b:0013001300000000
#06219:000000000000000000000000000000000000001300000000000000000000000000000000000000000000000000000000000000000000000000000000000000000000000000000000000000000000000000000000000000000000000000000000
#06212:0000240000240000
#06217:0024
#06210:0041
#06516:0013
#06514:0000000000000013
#0651a:140000000000000000000000000000000000000000000000000000000000000000000000000000000000000000000000240000000000000000000000000000000000001300000000000000000000000000000000000000000000000000000000
#06515:000000000000000000000000000000140000000000000000000000000000000000000000000000000000000000000000000000000000000000000000000000000000002400000000000000000000000000000000000000000000000000000000
#06517:000000000000000000000000000000000000000000000000000000000000000000000000000000000000000000000000000000000000000000000000000000000000000000000000000000000000000000000000000000000000000000000000000000000000000000000000000000000000000000000000000000000000000000000000000000000000000000000000000000000000000000000000000000000000000000000000000000000000000000000000000000000000000000000000000000000000000000000000000000000000000000000000000000000000000000000000000000000000000000000000000000000000000000000000000000000000000000000000000000000000000000000000000000000000000000000000000000000000000000000000001400000000000000000000000000000000000000000000000000000000000000000000000000000000000000000000000000000000000000000000000000000000000000000000000000000000000000000000000000000000000000000000000000000000000000000000000000000000000000000000000000000000000000000000000000000000000000000000000000000000000000000000000000000000000000000000000000000000000000000000000000000000000000000000000000000000000000000000000000000000000000000000000000000000000000000000000000000000000000000000000000000000000000000000000000000000000000000000000000000000000000000000000000000000000000000000000000000000000000000000000000000000000000000000000000000000000000000000000000000000000000000000000000000000000000000000000000000000000000000000000000000000000000000000000000000000000000000000000000000000000000000000000000000000000000000000000000000000000000000000000000000000000000000000000000000000000000000000000000000000000000000000000000000000000000000000000000000000000000000000000000000000000000000000000000000000000000000000000000000000000000000000000000000000000000000000000000000000000000000000000000000000000000000000000000000000000000000000000000000000000000000000000000000000000000000000000000000000000000000000000000000000000000000000000000000000000000000000000000000000000000000000000000000000000000000000000000000000000000000000000000000000000000000000000000000000000000000000000000000000000000000000000000000000000000000000000000000000000000000000000000000000000000000000000000000000000000000000000000000000000000000000000000000000000000000000000000000000000000000000000000000000000000000000000000000000000000000000000000000000000000000000000000000000000000000000000000000000000000000000000000000000000000000000000000000000000000000000000000000000000000000000000000000000000000000000000000000000000000000000000000000000000000000000000000000000000000000000000000000000000000000000000000000000000000000000000000000000000000000000000000000000000000000000000000000000000000000000000000000000000000000000000000000000000000000000000000000000000000000000000000000000000000000000000000000000000000000000000000000000000000000000000000000000000000000000000000000000000000000000000000000000000000000000000000000000000000000000000000000000000000000000000000000000000000000000000000000000000000000000000000000000000000000000000000000000000000000000000000000000000000000000000000000000000000000000000000000000000000000000000000000000000000000000000000000000000000000000000000000000000000000000000000000000000000000000000000000000000000000000000000000000000000000000000000000000000000000000000000000000000000000000000000000000000000000000000000000000000000000000000000000000000000000000000000000000000000000000000000000000000000000000000000000000000000000000000000000000000000000000000000000000000000000000000000000000000000000000000000000000000000000000000000000000000000000000000000000000000000000000000000000000000000000000000000000000000000000000000000000000000000000000000000000000000000000000000000000000000000000000000000000000000000000000000000000000000000000000000000000000000000000000000000000000000000000000000000000000000000000000000000000000000000000000000000000000000000000000000000000000000000000000000000000000000000000000000000000000000000000000
#06512:14
#06518:0000000000000024
#06612:00131300
#0661a:00000000000000120000000000000000
#06618:000000000000001300000000000000000000000000000000000000000000000000000000000000000000000000000000260000000000000000000000000000000000000000000000000000000000000000000000000000000000000000000000
#0661b:00000013
#06616:0000241300000000
#06613:000000000000002400000000000000000000000000000000000000000000000000000000000000000000000000000000000000000000000000000000000000000000000000000000000000000000000000000000000000000000000000000000
#06614:000000000000000000000000000000000000000000000000000000000000000000000000000000000000000000000000000000000000005300000000530000000000005300000000000000000000000000000000000000000000000000000000
#06619:000000000000000000000000000000000000000000000000000000000000000000000000000000000000000000000000000000000000000000000000000000000000000000000000000000000000005300000000530000000000005300000000
#06715:130000000000000000000000230000000000000000000000230000000000000000000000000000000000002300000000000000000000000000000000000000000000000000000000000000000000005300000000530000000000005300000000
#0671b:0013
#06712:000000000000000000000000000000000000000000000000000000000000002300000000000000000000000000000000000000000000000000000000000000000000000000000000130000000000000000000000000000000000000000000000
#06718:000000000000002300000000000000000000002300000000000000000000002300000000000000000000000000000000000000000000005300000000530000000000005300000000000000000000000000000000000000000000000000000000
#0681a:13
#06812:0013
#0681b:000000000000000000000000000000000000000000000000000000000000002300000000000000000000000000000000000000000000000000000000000000000000000000000000130000000000000000000000000000000000000000000000
#06815:000000000000002300000000000000000000000000000000000000000000000000000000000000000000000000000000000000000000000000000000000000000000000000000000000000000000000000000000000000000000000000000000
#06819:0023000000000000
#06814:000000000000000000000000000000000000002300000000000000000000000000000000000000000000000000000000000000000000000000000000000000000000000000000000000000000000000000000000000000000000000000000000
#06818:00230000
#06813:000000000000000000000000000000000000000000000000000000000000002300000000000000000000000000000000000000000000000000000000000000000000000000000000000000000000000000000000000000000000000000000000
#06817:000000000000000000000000000000000000000000000000000000000000000000000000000000000000002300000000000000000000000000000000000000000000000000000000000000000000005300000000530000000000005300000000
#06816:000000000000000000000000000000000000000000000000000000000000000000000000000000000000000000000000000000000000005300000000530000000000005300000000000000000000000000000000000000000000000000000000
#06912:130000000000000000000000000000000000000000000000000000000000000000000000000000000000000000000000000000000000000000000000000000000000000000000000130000000000001300000000000000000000002400000000
#06917:000000000000002300000000000000000000000000000000000000000000000000000000000000000000000000000000000000000000000000000000130000000000000000000000130000000000001300000000000000000000001300000000
#06914:0023000000000000
#06919:000000000000000000000000000000000000002300000000000000000000000000000000000000000000000000000000000000000000000000000000000000000000000000000000000000000000000000000000000000000000000000000000
#06916:000000000000000000000000000000000000000000000000230000000000000000000000000000000000002300000000000000000000000000000000000000000000000000000000000000000000000000000000000000000000000000000000
#0691b:000000000000000000000000000000000000000000000000000000000000002300000000000000000000000000000000000000000000000000000000000000000000000000000000000000000000000000000000000000000000000000000000
#06913:000000000000000000000000000000000000000000000000000000000000002300000000000000000000000000000000000000000000000000000000000000000000000000000000000000000000000000000000000000000000000000000000
#07016:000000000000000000000000140000000000000000000000000000000000000000000000000000000000000000000000000000000000000000000000000000000000001300000000000000000000000000000000000000000000000000000000
#0701b:0013000000000000
#07017:000000000000333333333333000000000000000000130000
#0701a:000000000000000000000000000000000000000000000000000000000000000000000000000000000000000000000000000000000000000000000000000000000000002400000000000000000000000000000000000000000000000000000000
#07012:000000000000343434343434000000000000000000240000
#07116:000000000000001300000000000000000000000000000000000000000000000000000000000000000000000000000000000000000000000000000000000000000000000000000000000000000000000000000000000000000000000000000000
#07114:00000000000000000000001200000000
#0711a:000000000000002400000000000000000000000000000000000000000000000000000000000000000000000000000000000000000000000000000000000000000000120000000000000000000000000000000000000000000000000000000000
#07112:00240026
#07117:00230000
#03316:0013000000000000
#0331b:0000001300000000
#03317:00130000
#03312:0013
#02516:0000000000140000
#02515:000000000000000000000000130000000000000000000000000000000000001300000000000000000000000000000000000000000000000000000000000000000000000000000000000000000000000000000000000000000000000000000000
#0251b:000000000000000000000000130000000000000000000000000000000000001300000000000000000000000000000000230000000000000000000000000000000000000000000000000000000000000000000000000000000000000000000000
#02512:000000000000000000000000000000000000005300000000000000000000000000000000530000000000000000000000230000000000000000000000000000000000000000000000000000000000000000000000000000000000000000000000
#02514:00000024
#02518:000000000000000000000000000000000000005300000000000000000000000000000000530000000000000000000000000000000000000000000000000000000000000000000000240000000000000000000000000000000000000000000000
#0281a:0013000000140000
#02812:0000000000140000
#02813:0013000000000000
#02815:00130000
#02818:00000014
#05517:000000000000000000000000120000000000000000000000120000000000000000000000000000000000002200000000000000000000000000000000000000000000000000000000240000000000000000000000000000000000000000000000
#05512:000000000000000000000000130000000000000000000000130000000000000000000000000000000000002300000000000000000000000000000000000000000000002400000000000000000000000000000000000000000000002400000000
#0551a:000000000000000000000000000000000000000000000000000000000000000000000000000000000000000000000000000000000000000000000000240000000000000000000000000000000000002400000000000000000000000000000000
#05515:0000000000240024
#05017:0012120000121200
#0501b:0013130000000000
#05012:0000000000131300
#06316:1400000000140000000000000000000000000000000000000000000000000000
#0631a:1400000000240000
#06312:0000000000140000000000000000000000000000000000000000000000000000
#06315:0024
#06416:1400000000140000000000000000000000000000000000000000000000000000
#06412:14
#0641a:0000000000140000000000000000000000000000000000000000000000000000
#06417:0024
#06415:0000000000240000
#03612:0024000000000000
#03617:24
#03815:0024000000000000
#03817:24
#03715:24
#0371a:0024000000000000
#00052:14
#0005a:000000000000000000000000140000000000000000000000000000000000000000000000000000000000000000000000000000000000000000000000000000000000000000000000000000000000001400000000000000000000000000000000
#0025b:000000000000000000000000000000000000000000000000000000000000000000000000000000000000000000000000000000000000000000000000000000000000000000000000000000000000000000000000000000000000001300000000
#00252:16
#00352:000000000000000000000000000000000000000000000000000000000000000000000000000000000000000000000000000000000000000000000000000000000000000000000000000000000000000000000000000000000000001300000000
#00456:000000000000000000000000000000000000000000000000000000000000000000000000000000000000000000000000000000000000000000000000000000000000000000000000000000000000000000000000000000000000001300000000
#0045b:000000000000000000000000000000000000000000000000000000000000000000000000000000000000000000000000000000000000000000000000000000000000000000000000000000000000000000000000000000000000005300000000
#00556:0000000000630000
#00552:000000000000000000000000000000000000000000000000000000000000000000000000000000000000005300000000000000000000000000000000000000000000000000000000000000000000000000000000000000000000000000000000
#0055b:0000000000530000
#00557:000000000000000000000000000000000000000000000000000000000000000000000000000000000000005300000000000000000000000000000000000000000000000000000000000000000000000000000000000000000000000000000000
#00652:1353
#00657:5353
#0065b:00230000
#00756:6363
#00752:00230000
#0075b:1363
#0105b:6363
#01057:00230000
#01056:1363
#0085b:1313
#00852:00130013
#0095b:1313
#00952:00130013
#01258:1313
#01255:00130013
#01358:1313
#01355:00130013
#01152:5353
#01156:00230000
#01157:1353
#0145b:000000000000000000000000000000000000000000000000000000000000000000000000000000000000000000000000000000000000000000000000000000000000001300000000000000000000000000000000000000000000000000000000
#01552:000000000000000000000000000000000000000000000000000000000000000000000000000000000000000000000000000000000000000000000000000000000000001300000000000000000000000000000000000000000000000000000000
#01658:000000000000000000000000000000000000000000000000000000000000000000000000000000000000000000000000000000000000000000000000000000000000001300000000000000000000000000000000000000000000000000000000
#01652:0000000000000064
#01756:00000000002400000000000000000000
#01858:000000000000000000000000000000000000000000000000000000000000000000000000000000000000000000000000000000000000000000000000000000000000001300000000000000000000000000000000000000000000000000000000
#01955:000000000000000000000000000000000000000000000000000000000000000000000000000000000000000000000000000000000000000000000000000000000000001300000000000000000000000000000000000000000000000000000000
#01952:000000000000000000000000000000000000000000000000000000000000000000000000000000000000000000000000000000000000000000000000000000000000000000000000000000000000000000000000000000000000001400000000
#0195a:000000000000000000000000000000000000000000000000000000000000000000000000000000000000000000000000000000000000000000000000000000000000000000000000000000000000000000000000000000000000001400000000
#00156:00000054
#00154:00000000000000000000000000000022
#02055:0000000000000053
#02058:0000000000000053
#02052:0014140000000000
#0205a:0014140000000000
#02152:000000000000000000000000140000000000000000000000000000000000001400000000000000000000000000000000140000000000000000000000000000000000000000000000000000000000000000000000000000000000000000000000
#0215a:000000000000000000000000140000000000000000000000000000000000001400000000000000000000000000000000140000000000000000000000000000000000000000000000000000000000000000000000000000000000000000000000
#0225a:1400640014000014
#02252:54145400
#02256:0024002400000000
#02255:0000000000000014
#02352:000000000000000000000000000000000000000000000000000000000000000000000000000000000000001400000000000000000000000000000000000000000000000000000000000000000000000000000000000000000000000000000000
#02357:000000000000000000000000000000000000000000000000000000000000000000000000000000000000001400000000000000000000000000000000000000000000000000000000000000000000000000000000000000000000000000000000
#02358:000000000000000000000000000000000000000000000000000000000000000000000000000000000000000000000000000000000000000000000000000000000000000000000000000000000000000000000000000000000000001200000000
#02356:000000000000000000000000000000000000000000000000000000000000000000000000000000000000000000000000000000000000000000000000000000000000000000000000000000000000000000000000000000000000001200000000
#02552:0013
#02554:00000034
#02558:00000044
#0255b:0013
#0265a:64146400
#02656:0024002400000000
#02652:1400540014000014
#02657:0000000000000014
#0275a:000000000000000000000000000000000000000000000000000000000000000000000000000000000000001400000000000000000000000000000000000000000000000000000000000000000000000000000000000000000000000000000000
#02755:000000000000000000000000000000000000000000000000000000000000000000000000000000000000001400000000000000000000000000000000000000000000000000000000000000000000000000000000000000000000000000000000
#02756:000000000000000000000000000000000000000000000000000000000000000000000000000000000000000000000000000000000000000000000000000000000000000000000000000000000000000000000000000000000000001200000000
#02758:000000000000000000000000000000000000000000000000000000000000000000000000000000000000000000000000000000000000000000000000000000000000000000000000000000000000000000000000000000000000001200000000
#02958:00000013
#03056:0000000000000024
#03052:14000064
#0305a:14
#03156:0000000000000024
#0315a:00000054
#03256:0000000000000024
#03252:00000064
#03456:0000000000000024
#0345a:00000054
#03555:0000000000000024
#03552:00000064
#03655:000000000000000000000000000000000000000000000000000000000000000000000000000000000000000000000000000000000000000000000000000000000000000000000000000000000000001400000000000000000000000000000000
#0365a:000000000000000000000000000000000000000000000000000000000000000000000000000000000000000000000000000000000000000000000000000000000000000000000000000000000000001400000000000000000000000000000000
#03852:000000000000000000000000000000000000000000000000000000000000000000000000000000000000000000000000000000000000000000000000000000000000000000000000000000000000001400000000000000000000000000000000
#0385a:000000000000000000000000000000000000000000000000000000000000000000000000000000000000000000000000000000000000000000000000000000000000000000000000000000000000001400000000000000000000000000000000
#03752:000000000000000000000000000000000000000000000000000000000000000000000000000000000000000000000000000000000000000000000000000000000000000000000000000000000000001400000000000000000000000000000000
#03757:000000000000000000000000000000000000000000000000000000000000000000000000000000000000000000000000000000000000000000000000000000000000000000000000000000000000001400000000000000000000000000000000
#0395a:44000000000000000000000000000022
#03956:00000064
#03957:000000000000000000000000000000000000000000000000000000000000000000000000000000000000000000000000000000000000004400000000000000000000000000000000000000000000000000000000000000000000000000000000
#03958:0000004400000000
#03959:000000000000000000000000000000000000004400000000000000000000000000000000000000000000000000000000000000000000000000000000000000000000000000000000000000000000000000000000000000000000000000000000
#04052:00230000
#04055:0064
#04058:16
#0415b:00230000
#04157:0054
#04255:00230000
#04252:0054
#04358:00230000
#0435a:0064
#04752:00000000000000240000000000000000
#0475a:00000000000000240000000000000000
#0485a:44
#04852:00340035
#04859:00000045
#0495a:6400001400000000
#04952:000000000000000000000000000000000000005400000000000000000000000000000000000000000000000000000000000000000000000000000000000000000000000000000000000000000000000000000000000000000000001400000000
#04957:000000000000000000000000000000000000005400000000000000000000000000000000000000000000000000000000000000000000000000000000540000000000000000000000000000000000000000000000000000000000001400000000
#04955:0000005400000000
#05252:13005434
#0525b:13
#05254:00340000
#05258:00440000
#05256:0000000000240024
#0525a:00000064
#05257:0044
#05352:5400001400000000
#0535a:440000000000000000000000000000000000006400000000000000000000000000000000000000000000000024000000000000002400000000000000000000000000000000000000000000000000000000000000000000000000001400000000
#05357:0000005400000000
#05359:000000000000000000000000000000000000000000000054005400540054000000000000000000000000000000000000
#05358:000000000000242400000000
#05355:000000000000000000000000000000000000006400000000000000000000000000000000000000000000000000000000000000000000000000000000640000000000000000000000000000000000000000000000000000000000001400000000
#05656:00140000
#05457:000000000000000000000000000000000000000000000000000000000000000000000000000000000000001200000000000000000000000000000000000000000000000000000000000000000000000000000000000000000000001200000000
#05452:000000000000000000000000000000000000000000000000000000000000000000000000000000000000001300000000000000000000000000000000000000000000000000000000000000000000000000000000000000000000000000000000
#0545b:000000000000000000000000000000000000000000000000000000000000000000000000000000000000000000000000000000000000000000000000000000000000000000000000000000000000000000000000000000000000001300000000
#05756:0000002400000000
#05752:00640000
#05856:0000002400000000
#0585a:00540000
#05956:0000002400000000
#05952:00640000
#06157:0000002400000000
#0615a:00540000
#06255:0000002400000000
#06252:00640000
#0665a:00000000000000220000000000000000
#06656:00640000
#06658:0016
#06653:000000000000003400000000000000000000000000000000000000000000000000000000000000000000000000000000000000000000000000000000000000000000000000000000000000000000000000000000000000000000000000000000
#0655a:540000000000000000000000000000000000000000000000000000000000004400000000000000000000000000000000440000000000000000000000000000000000000000000000000000000000000000000000000000000000000000000000
#06558:0000000000000044
#06555:000000000000000000000000000000240000000000000000000000000000000000000000000000000000000000000000000000000000000000000000000000000000003400000000000000000000000000000000000000000000000000000000
#06557:000000000000000000000000000000000000000000000000000000000000000000000000000000000000000000000000000000000000000000000000000000000000000000000000000000000000000000000000000000000000000000000000000000000000000000000000000000000000000000000000000000000000000000000000000000000000000000000000000000000000000000000000000000000000000000000000000000000000000000000000000000000000000000000000000000000000000000000000000000000000000000000000000000000000000000000000000000000000000000000000000000000000000000000000000000000000000000000000000000000000000000000000000000000000000000000000000000000000000000000000002400000000000000000000000000000000000000000000000000000000000000000000000000000000000000000000000000000000000000000000000000000000000000000000000000000000000000000000000000000000000000000000000000000000000000000000000000000000000000000000000000000000000000000000000000000000000000000000000000000000000000000000000000000000000000000000000000000000000000000000000000000000000000000000000000000000000000000000000000000000000000000000000000000000000000000000000000000000000000000000000000000000000000000000000000000000000000000000000000000000000000000000000000000000000000000000000000000000000000000000000000000000000000000000000000000000000000000000000000000000000000000000000000000000000000000000000000000000000000000000000000000000000000000000000000000000000000000000000000000000000000000000000000000000000000000000000000000000000000000000000000000000000000000000000000000000000000000000000000000000000000000000000000000000000000000000000000000000000000000000000000000000000000000000000000000000000000000000000000000000000000000000000000000000000000000000000000000000000000000000000000000000000000000000000000000000000000000000000000000000000000000000000000000000000000000000000000000000000000000000000000000000000000000000000000000000000000000000000000000000000000000000000000000000000000000000000000000000000000000000000000000000000000000000000000000000000000000000000000000000000000000000000000000000000000000000000000000000000000000000000000000000000000000000000000000000000000000000000000000000000000000000000000000000000000000000000000000000000000000000000000000000000000000000000000000000000000000000000000000000000000000000000000000000000000000000000000000000000000000000000000000000000000000000000000000000000000000000000000000000000000000000000000000000000000000000000000000000000000000000000000000000000000000000000000000000000000000000000000000000000000000000000000000000000000000000000000000000000000000000000000000000000000000000000000000000000000000000000000000000000000000000000000000000000000000000000000000000000000000000000000000000000000000000000000000000000000000000000000000000000000000000000000000000000000000000000000000000000000000000000000000000000000000000000000000000000000000000000000000000000000000000000000000000000000000000000000000000000000000000000000000000000000000000000000000000000000000000000000000000000000000000000000000000000000000000000000000000000000000000000000000000000000000000000000000000000000000000000000000000000000000000000000000000000000000000000000000000000000000000000000000000000000000000000000000000000000000000000000000000000000000000000000000000000000000000000000000000000000000000000000000000000000000000000000000000000000000000000000000000000000000000000000000000000000000000000000000000000000000000000000000000000000000000000000000000000000000000000000000000000000000000000000000000000000000000000000000000000000000000000000000000000000000000000000000000000000000000000000000000000000000000000000000000000000000000000000000000000000000000000000000000000000000000000000000000000000000000000000000000000000000000000000000000000000000000000000000000000000000000000000000000000000000000000000000000000000000000000000000000000000000000000000000000000000000000000000000000000000000000
#06552:540000000000000000000000000000000000000000000000000000000000003400000000000000000000000000000000000000000000000000000000000000000000000000000000000000000000000000000000000000000000000000000000
#06755:000000000000000000000000000000000000000000000000000000000000000000000000000000000000001300000000000000000000000000000000000000000000000000000000000000000000000000000000000000000000000000000000
#06857:000000000000000000000000000000000000000000000000000000000000000000000000000000000000001300000000000000000000000000000000000000000000000000000000000000000000000000000000000000000000000000000000
#0695b:000000000000000000000000000000000000000000000000000000000000000000000000000000000000001300000000000000000000000000000000000000000000000000000000000000000000000000000000000000000000000000000000
#06956:000000000000000000000000000000000000000000000000000000000000000000000000000000000000005300000000000000000000000000000000000000000000000000000000000000000000000000000000000000000000000000000000
#06957:000000000000000000000000000000000000000000000000000000000000000000000000000000000000000000000000000000000000000000000000000000000000000000000000000000000000000000000000000000000000005300000000
#06952:000000000000000000000000000000000000000000000000000000000000000000000000000000000000000000000000000000000000000000000000000000000000000000000000000000000000000000000000000000000000005400000000
#07056:000000000000000000000000640000000000000000000000000000000000000000000000000000000000000000000000000000000000000000000000000000000000001300000000000000000000000000000000000000000000000000000000
#0705b:0053000000000000
#07052:0000000014000014
#07057:0000000013000013
#0705a:000000000000000000000000000000000000000000000000000000000000000000000000000000000000000000000000000000000000000000000000000000000000001400000000000000000000000000000000000000000000000000000000
#0715a:000000000000001400000000000000000000000000000000000000000000000000000000000000000000000000000000000000000000000000000000000000000000220000000000000000000000000000000000000000000000000000000000
#07156:000000000000001300000000000000000000000000000000000000000000000000000000000000000000000000000000000000000000000000000000000000000000000000000000000000000000000000000000000000000000000000000000
#07152:00140016
#07157:00630000
#07154:00000000000000000000002200000000
#07158:00000016
#02455:000000000000000000000000000000000000000000000000000000000000000000000000000000000000001300000000000000000000000000000000000000000000000000000000000000000000000000000000000000000000000000000000
#02458:000000000000000000000000000000000000000000000000000000000000000000000000000000000000001300000000000000000000000000000000000000000000000000000000000000000000000000000000000000000000001400000000
#02454:000000000000000000000000000000000000000000000000000000000000000000000000000000000000000000000000000000000000000000000000000000000000000000000000000000000000000000000000000000000000001400000000
#02858:000000000000000000000000000000000000000000000000000000000000000000000000000000000000001300000000000000000000000000000000000000000000000000000000000000000000000000000000000000000000001400000000
#02855:000000000000000000000000000000000000000000000000000000000000000000000000000000000000001300000000000000000000000000000000000000000000000000000000000000000000000000000000000000000000000000000000
#02854:000000000000000000000000000000000000000000000000000000000000000000000000000000000000000000000000000000000000000000000000000000000000000000000000000000000000000000000000000000000000001400000000
#05557:000000000000000000000000000000000000000000000000000000000000000000000000000000000000001200000000000000000000000000000000000000000000000000000000000000000000000000000000000000000000000000000000
#05552:000000000000000000000000000000000000000000000000000000000000000000000000000000000000001300000000000000000000000000000000000000000000000000000000000000000000000000000000000000000000000000000000
#05057:000000000000000000000000000000000000000000000000000000000000000000000000000000000000001200000000000000000000000000000000000000000000000000000000000000000000000000000000000000000000001200000000
#0505b:000000000000000000000000000000000000000000000000000000000000000000000000000000000000001300000000000000000000000000000000000000000000000000000000000000000000000000000000000000000000000000000000
#05052:000000000000000000000000000000000000000000000000000000000000000000000000000000000000000000000000000000000000000000000000000000000000000000000000000000000000000000000000000000000000001300000000
#05157:000000000000000000000000000000000000000000000000000000000000000000000000000000000000001200000000000000000000000000000000000000000000000000000000000000000000000000000000000000000000000000000000
#0515b:000000000000000000000000000000000000000000000000000000000000000000000000000000000000001300000000000000000000000000000000000000000000000000000000000000000000000000000000000000000000000000000000
#0635a:640000000000000000000000000000000000000000000000000000000000001400000000000000000000000000000000000000000000000000000000000000000000000000000000000000000000000000000000000000000000000000000000
#06356:640000000000000000000000000000240000000000000000000000000000001400000000000000000000000000000000000000000000000000000000000000000000000000000000000000000000000000000000000000000000000000000000
#06352:0000000000240000000000000000000000000000000000000000000000000000
#06456:540000000000000000000000000000240000000000000000000000000000001400000000000000000000000000000000000000000000000000000000000000000000000000000000000000000000000000000000000000000000000000000000
#06452:540000000000000000000000000000000000000000000000000000000000001400000000000000000000000000000000000000000000000000000000000000000000000000000000000000000000000000000000000000000000000000000000
#0645a:0000000000240000000000000000000000000000000000000000000000000000
#03355:0000000000000014
#0335a:0000000000000014
#03352:0013
#06052:0000001400000000
#06057:0000001400000000
#0605b:13
#001360:00000014
#001340:00000000000000000000000000520052
#002320:26
#004360:000000000000000000000000000000000000000000000000000000000000000000000000000000000000000000000000000000000000000000000000000000000000000000000000000000000000001300000000000000000000002300000000
#0043b1:000000000000000000000000000000000000000000000000000000000000000000000000000000000000000000000000000000000000000000000000000000000000000000000000000000000000000000000000000000000000001300000000
#005371:0023000000000000
#005321:000000000000000000000000000000000000000000000000000000000000000000000000000000000000001300000000000000000000000000000000000000000000000000000000000000000000000000000000000000000000000000000000
#005361:0000000000330000
#006321:23
#005370:000000000000000000000000000000000000000000000000000000000000000000000000000000000000001300000000000000000000000000000000000000000000000000000000000000000000000000000000000000000000000000000000
#0053b0:0000000000330000
#006370:3333
#0063b0:00330023
#006321:0013
#006361:00000023
#007361:1333
#007321:00330023
#0073b0:0013
#007370:00000023
#0103b0:1333
#010370:00330023
#010361:0013
#010321:00000023
#011321:1333
#011361:00330023
#011370:0013
#0113b0:00000023
#0143b0:000000000000000000000000000000000000000000000000000000000000000000000000000000000000000000000000130000000000003300000000000000000000002300000000000000000000000000000000000000000000000000000000
#015320:000000000000000000000000000000000000000000000000000000000000000000000000000000000000000000000000130000000000000000000000330000000000002300000000000000000000000000000000000000000000000000000000
#016380:000000000000000000000000000000000000000000000000000000000000000000000000000000000000000000000000130000000000003300000000000000000000002300000000000000000000000000000000000000000000000000000000
#016320:0000000000000014
#017360:00000000005400000000000000000000
#017320:00000024
#018380:000000000000000000000000000000000000000000000000000000000000000000000000000000000000000000000000130000000000003300000000000000000000002300000000000000000000000000000000000000000000000000000000
#019350:000000000000000000000000000000000000000000000000000000000000000000000000000000000000000000000000130000000000003300000000000000000000002300000000000000000000000000000000000000000000000000000000
#020350:000000000000000000000000000000000000000000000000000000000000000000000000000000000000000000000000130000000000003300000000000000000000003300000000000000000000000000000000330000000000000000000000
#021320:0024000000000000
#020381:000000000000000000000000000000000000000000000000000000000000000000000000000000000000000000000000000000000000000000000000000000000000001300000000000000000000000000000000330000000000000000000000
#0213a1:0024000000000000
#022321:14240000
#022361:0054000000000000
#0223a0:00142400
#022360:0000005400000000
#022321:0014
#022351:000000000000000000000000000000000000000000000000000000000000000000000000000000000000000000000000000000000000000000000000540000000000003400000000000000000000000000000000240000000000000000000000
#0223a0:000000000000000000000000000000000000000000000000000000000000000000000000000000000000000000000000000000000000000000000000000000000000001400000000000000000000000000000000240000000000000000000000
#023380:000000000000000000000000000000000000000000000000000000000000000000000000000000000000000000000000000000000000000000000000000000000000000000000000000000000000001200000000000000000000002200000000
#023361:000000000000000000000000000000000000000000000000000000000000000000000000000000000000000000000000000000000000000000000000000000000000000000000000000000000000000000000000120000000000002200000000
#024351:000000000000000000000000000000000000000000000000000000000000001300000000000000000000002300000000000000000000000000000000000000000000000000000000000000000000000000000000000000000000000000000000
#024380:000000000000000000000000000000000000000000000000000000000000000000000000130000000000002300000000000000000000000000000000000000000000000000000000000000000000000000000000000000000000000000000000
#024380:000000000000000000000000000000000000000000000000000000000000000000000000000000000000000000000000000000000000000000000000000000000000000000000000000000000000001400000000000000000000002400000000
#024341:000000000000000000000000000000000000000000000000000000000000000000000000000000000000000000000000000000000000000000000000000000000000000000000000000000000000000000000000140000000000002400000000
#0263a1:14240000
#026361:0054000000000000
#026320:00142400
#026360:0000005400000000
#0263a1:0014
#026371:000000000000000000000000000000000000000000000000000000000000000000000000000000000000000000000000000000000000000000000000540000000000003400000000000000000000000000000000240000000000000000000000
#026320:000000000000000000000000000000000000000000000000000000000000000000000000000000000000000000000000000000000000000000000000000000000000001400000000000000000000000000000000240000000000000000000000
#027360:000000000000000000000000000000000000000000000000000000000000000000000000000000000000000000000000000000000000000000000000000000000000000000000000000000000000001200000000000000000000002200000000
#027381:000000000000000000000000000000000000000000000000000000000000000000000000000000000000000000000000000000000000000000000000000000000000000000000000000000000000000000000000120000000000002200000000
#028381:000000000000000000000000000000000000000000000000000000000000001300000000000000000000002300000000000000000000000000000000000000000000000000000000000000000000000000000000000000000000000000000000
#028350:000000000000000000000000000000000000000000000000000000000000000000000000130000000000002300000000000000000000000000000000000000000000000000000000000000000000000000000000000000000000000000000000
#028340:000000000000000000000000000000000000000000000000000000000000000000000000000000000000000000000000000000000000000000000000000000000000000000000000000000000000001400000000000000000000002400000000
#028381:000000000000000000000000000000000000000000000000000000000000000000000000000000000000000000000000000000000000000000000000000000000000000000000000000000000000000000000000140000000000002400000000
#029381:00001323
#030321:00000014
#030361:0000000000000054
#031321:24
#031381:0000000013230000
#0313a1:00000014
#031361:0000000000000054
#0323a1:24
#032321:00000014
#032361:0000000000000054
#033321:24
#033360:14
#0333a0:00542400000000000000000000000000
#033320:00140000
#033360:00000000005424000000000000000000
#033360:0014
#0333a0:000000000000000000000000000000000000000000000000000000000000000000000000000000000000000000000000000000000000540000000000000000000000003400000000000000000000000000000000240000000000000000000000
#033321:000000000000000000000000000000000000000000000000000000000000000000000000000000000000000000000000000000000000000000000000000000000000001400000000000000000000000000000000000000000000000000000000
#033351:0000000000005424
#0343a1:00000014
#034361:0000000000000054
#0353a1:24
#035321:00000014
#035351:0000000000000054
#036321:24
#036370:14
#0363a0:000000540000000000000000000000000000000000000000000000000000000000000000000000000000000000000000000000000000000000000000000000000000000000000000000000000000002400000000000000000000000000000000
#036321:0014000000000000
#036351:000000000000000000000000000000540000000000000000000000000000000000000000000000000000000000000000000000000000000000000000000000000000000000000000000000000000002400000000000000000000000000000000
#037351:14
#037321:000000540000000000000000000000000000000000000000000000000000000000000000000000000000000000000000000000000000000000000000000000000000000000000000000000000000002400000000000000000000000000000000
#0373a0:0014000000000000
#037370:000000000000000000000000000000540000000000000000000000000000000000000000000000000000000000000000000000000000000000000000000000000000000000000000000000000000002400000000000000000000000000000000
#038370:14
#0383a0:000000540000000000000000000000000000000000000000000000000000000000000000000000000000000000000000000000000000000000000000000000000000000000000000000000000000002400000000000000000000000000000000
#038351:0014000000000000
#038321:000000000000000000000000000000540000000000000000000000000000000000000000000000000000000000000000000000000000000000000000000000000000000000000000000000000000002400000000000000000000000000000000
#039361:00000014
#0393a1:00000000000000000000000000520052
#040381:26
#040320:13530053
#040350:0034
#041320:23
#0413b1:13530053
#041371:0034
#0423b1:23
#042350:13530053
#042320:0034
#043350:23
#043381:13530053
#0433a1:0034
#044381:23
#0473a1:14000000000000540000000000000000
#047381:00000022
#047320:14000000000000540000000000000000
#047360:00000022
#0493a0:140000000000000000000000000000000000000000000000000000000000005400000000240000000000000000000000000000000000000000000000000000000000000000000000000000000000000000000000000000000000000000000000
#049370:000000000000000000000000540000000000003400000000000000000000000000000000000000000000000000000000000000000000000000000000000000000000000000000000000000000000000000000000000000000000000000000000
#049321:000000000000000000000000000000000000001400000000000000000000000000000000000000000000000000000000000000000000000000000000240000000000000000000000000000000000000000000000000000000000000000000000
#049351:000000000000000000000000000000000000000000000000000000000000005400000000340000000000000000000000000000000000000000000000000000000000000000000000000000000000000000000000000000000000000000000000
#049370:0000000000140000
#0493a0:00000024
#0503b0:000000000000000000000000000000000000000000000000000000000000001300000000000000000000002300000000000000000000000000000000000000000000000000000000000000000000000000000000000000000000000000000000
#050371:000000000000000000000000000000000000000000000000000000000000000000000000120000000000002200000000000000000000000000000000000000000000000000000000000000000000000000000000000000000000000000000000
#050321:000000000000000000000000000000000000000000000000000000000000000000000000000000000000000000000000000000000000000000000000000000000000000000000000000000000000001300000000000000000000002300000000
#050370:000000000000000000000000000000000000000000000000000000000000000000000000000000000000000000000000000000000000000000000000000000000000000000000000000000000000000000000000120000000000002200000000
#0513b0:000000000000000000000000000000000000000000000000000000000000001300000000000000000000002300000000000000000000000000000000000000000000000000000000000000000000000000000000000000000000000000000000
#051371:000000000000000000000000000000000000000000000000000000000000000000000000120000000000002200000000000000000000000000000000000000000000000000000000000000000000000000000000000000000000000000000000
#052321:00001424
#052361:0000000000540000
#0523a0:00000014
#052360:0000000000000054
#0533a0:24
#053321:140000000000000000000000000000000000000000000000000000000000005400000000240000000000000000000000000000000000000000000000000000000000000000000000000000000000000000000000000000000000000000000000
#053351:000000000000000000000000540000000000003400000000000000000000000000000000000000000000000000000000000000000000000000000000000000000000000000000000000000000000000000000000000000000000000000000000
#0533a0:000000000000000000000000000000000000001400000000000000000000000000000000000000000000000054000000000000005400000000000000240000000000000000000000000000000000000000000000000000000000000000000000
#053370:000000000000000000000000000000000000000000000000000000000000005400000000340000000000000000000000000000000000000000000000000000000000000000000000000000000000000000000000000000000000000000000000
#053390:000000000000000000000000000000000000000000000054005400540054000000000000000000000000000000000000
#053380:000000000000545400000000
#053351:0000000000140000
#053321:00000024
#054321:000000000000000000000000000000000000000000000000000000000000001300000000000000000000002300000000000000000000000000000000000000000000000000000000000000000000000000000000000000000000000000000000
#054370:000000000000000000000000000000000000000000000000000000000000000000000000120000000000002200000000000000000000000000000000000000000000000000000000000000000000000000000000000000000000000000000000
#0543b0:000000000000000000000000000000000000000000000000000000000000000000000000000000000000000000000000000000000000000000000000000000000000000000000000000000000000001300000000000000000000002300000000
#054371:000000000000000000000000000000000000000000000000000000000000000000000000000000000000000000000000000000000000000000000000000000000000000000000000000000000000000000000000120000000000002200000000
#055321:000000000000000000000000000000000000000000000000000000000000001300000000000000000000002300000000000000000000000000000000000000000000000000000000000000000000000000000000000000000000000000000000
#055370:000000000000000000000000000000000000000000000000000000000000000000000000120000000000002200000000000000000000000000000000000000000000000000000000000000000000000000000000000000000000000000000000
#056360:14240000
#057320:00142400
#057360:0000005400000000
#0583b0:1323000000000000
#0583a0:00142400
#058360:0000005400000000
#059320:00142400
#059360:0000005400000000
#0593a1:0014
#059361:00000000000000000054240000000000
#059361:00000014
#059321:00000000000000000000000000542400
#060361:14
#060321:000000000000540000000000000000000000003400000000000000000000000000000000240000000000000000000000000000000000000000000000000000000000000000000000000000000000000000000000000000000000000000000000
#0603a0:000000000000000000000000000000000000001400000000000000000000000000000000000000000000000000000000000000000000000000000000000000000000000000000000000000000000000000000000000000000000000000000000
#060370:0000542400000000
#0613a0:00142400
#061370:0000005400000000
#062320:00142400
#062350:0000005400000000
#062371:0014
#0623a1:0000000000000000000000000000000000540000000000000000000000000000
#0633a1:340000000000000000000000000000000000000000000000000000000000002400000000000000000000000000000000000000000000000000000000000000000000000000000000000000000000000000000000000000000000000000000000
#063361:0000000000540000000000000000000000000000000000000000000000000000
#062320:0000000000140000
#062360:0000000000000000000000000000000000000000005400000000000000000000
#063360:340000000000000000000000000000000000000000000000000000000000002400000000000000000000000000000000000000000000000000000000000000000000000000000000000000000000000000000000000000000000000000000000
#063320:0000000000540000000000000000000000000000000000000000000000000000
#063350:0014
#063320:0000000000000000000000000000000000540000000000000000000000000000
#064320:340000000000000000000000000000000000000000000000000000000000002400000000000000000000000000000000000000000000000000000000000000000000000000000000000000000000000000000000000000000000000000000000
#064360:0000000000540000000000000000000000000000000000000000000000000000
#0633a1:0000000000140000
#063361:0000000000000000000000000000000000000000005400000000000000000000
#064361:340000000000000000000000000000000000000000000000000000000000002400000000000000000000000000000000000000000000000000000000000000000000000000000000000000000000000000000000000000000000000000000000
#0643a1:0000000000540000000000000000000000000000000000000000000000000000
#064371:0014
#0643a1:0000000000000000000000000000000000540000000000000000000000000000
#0653a1:340000000000000000000000000000000000000000000000000000000000002400000000000000000000000000000000000000000000000000000000000000000000000000000000000000000000000000000000000000000000000000000000
#065371:000000000000000000000000000000000000000000000000000000000000000000000000000000000000000000000000000000000000000000000000000000000000000000000000000000000000000000000000000000000000000000000000000000000000000000000000000000000000000000000000000000000000000000000000000000000000000000000000000000000000000000000000000000000000000000000000000000000000000000000000000000000000000000000000000000000000000000000000000000000000000000000000000000000000000000000000000000000000000000000000000000000000000000000000000000000000000000000000000000000000000000000000000000000000000000000000000000000000000000000000005400000000000000000000000000000000000000000000000000000000000000000000000000000000000000000000000000000000000000000000000000000000000000000000000000000000000000000000000000000000000000000000000000000000000000000000000000000000000000000000000000000000000000000000000000000000000000000000000000000000000000000000000000000000000000000000000000000000000000000000000000000000000000000000000000000000000000000000000000000000000000000000000000000000000000000000000000000000000000000000000000000000000000000000000000000000000000000000000000000000000000000000000000000000000000000000000000000000000000000000000000000000000000000000000000000000000000000000000000000000000000000000000000000000000000000000000000000000000000000000000000000000000000000000000000000000000000000000000000000000000000000000000000000000000000000000000000000000000000000000000000000000000000000000000000000000000000000000000000000000000000000000000000000000000000000000000000000000000000000000000000000000000000000000000000000000000000000000000000000000000000000000000000000000000000000000000000000000000000000000000000000000000000000000000000000000000000000000000000000000000000000000000000000000000000000000000000000000000000000000000000000000000000000000000000000000000000000000000000000000000000000000000000000000000000000000000000000000000000000000000000000000000000000000000000000000000000000000000000000000000000000000000000000000000000000000000000000000000000000000000000000000000000000000000000000000000000000000000000000000000000000000000000000000000000000000000000000000000000000000000000000000000000000000000000000000000000000000000000000000000000000000000000000000000000000000000000000000000000000000000000000000000000000000000000000000000000000000000000000000000000000000000000000000000000000000000000000000000000000000000000000000000000000000000000000000000000000000000000000000000000000000000000000000000000000000000000000000000000000000000000000000000000000000000000000000000000000000000000000000000000000000000000000000000000000000000000000000000000000000000000000000000000000000000000000000000000000000000000000000000000000000000000000000000000000000000000000000000000000000000000000000000000000000000000000000000000000000000000000000000000000000000000000000000000000000000000000000000000000000000000000000000000000000000000000000000000000000000000000000000000000000000000000000000000000000000000000000000000000000000000000000000000000000000000000000000000000000000000000000000000000000000000000000000000000000000000000000000000000000000000000000000000000000000000000000000000000000000000000000000000000000000000000000000000000000000000000000000000000000000000000000000000000000000000000000000000000000000000000000000000000000000000000000000000000000000000000000000000000000000000000000000000000000000000000000000000000000000000000000000000000000000000000000000000000000000000000000000000000000000000000000000000000000000000000000000000000000000000000000000000000000000000000000000000000000000000000000000000000000000000000000000000000000000000000000000000000000000000000000000000000000000000000000000000000000000000000000000000000000000000000000000000000000000000000000000000000000000000000000000000000000000000000000000000000000000000000000000000000000
#064350:0000000000140000
#064320:0000000000000000000000000000000000000000005400000000000000000000
#065320:340000000000000000000000000000000000000000000000000000000000002400000000000000000000000000000000000000000000000000000000000000000000000000000000000000000000000000000000000000000000000000000000
#065350:0000000000540000000000000000000000000000000000000000000000000000
#066360:00140000
#0663a0:00000000005200520000000000000000
#066380:0026
#0693b0:000000000000000000000000000000000000000000000000000000000000001300000000000000000000002300000000000000000000000000000000000000000000000000000000000000000000000000000000000000000000000000000000
#069361:000000000000000000000000000000000000000000000000000000000000000000000000000000000000001300000000000000000000000000000000000000000000000000000000000000000000000000000000000000000000000000000000
#069321:0000000000230000
#069321:000000000000000000000000000000000000000000000000000000000000000000000000000000000000000000000000000000000000000000000000000000000000000000000000000000000000000000000000000000000000001400000000
#070361:0034000000000000
#070321:000000000000343434343434240000000000000000000000
#069370:000000000000000000000000000000000000000000000000000000000000000000000000000000000000000000000000000000000000000000000000000000000000000000000000000000000000000000000000000000000000001300000000
#0703b0:0033000000000000
#070370:000000000000333333333333230000000000000000000000
#071370:00130000
#0713a0:00000000000000000000000000000000000000005200000000000000000000003252525252525252525252525200000000000000000000000000000000000000
#071390:0000000000000000000000000000000000000000000000000000000000000000000000000000000000000000000000000000000000000000000000000000000000000054000000540000005400000054000000540000005400000000000000000000000000000000000000000000000000000000000000000000000000000000
#071380:00000026
#071341:00000000000000000000000000000000000000000000000000000000000000001252525252525252525252525200000000000000000000000000000000000000
#071331:0000000000000000000000000000000000000000000000000000000000000000000000000000000000000000000000000000000000000000000000000000000000000054000000540000005400000054000000540000005400000000000000000000000000000000000000000000000000000000000000000000000000000000
#071321:00000026
#000920:000000000000000000000000000000000000000000000000130000000000005300000000000000000000000000000000000000000000000000000000000000000000000000000000530000000000002300000000000000000000000000000000
#000940:000000000000000000000000000000000000000000000000000000000000000000000000530000000000005300000000000000000000000000000000530000000000005300000000000000000000000000000000000000000000000000000000
#000960:000000000000000000000000000000000000000000000000000000000000000000000000000000000000000000000000530000000000005300000000000000000000000000000000000000000000000000000000000000000000000000000000
#002990:13
#0029b0:000000000000005300000000530000000000002300000000000000000000000000000000000000000000000000000000000000000000000000000000000000000000000000000000000000000000000000000000000000000000000000000000
#002940:00130000
#002920:000000000000000000000000000000000000000000000000000000000000005300000000530000000000002300000000000000000000000000000000000000000000000000000000000000000000000000000000000000000000000000000000
#003950:13
#003920:000000000000005300000000530000000000002300000000000000000000000000000000000000000000000000000000000000000000000000000000000000000000000000000000000000000000000000000000000000000000000000000000
#003980:00130000
#0039b0:000000000000000000000000000000000000000000000000000000000000005300000000530000000000002300000000000000000000000000000000000000000000000000000000000000000000000000000000000000000000000000000000
#004970:13
#0049b0:000000000000005300000000530000000000002300000000000000000000000000000000000000000000000000000000000000000000000000000000000000000000000000000000000000000000000000000000000000000000000000000000
#004960:00130000
#004920:000000000000000000000000000000000000000000000000000000000000005300000000530000000000002300000000000000000000000000000000000000000000000000000000000000000000000000000000000000000000000000000000
#005920:00130000
#005950:000000000000000000000000000000000000000000000000000000000000002300000000000000000000000000000000000000000000000000000000000000000000000000000000000000000000000000000000000000000000000000000000
#005971:00130000
#0059a1:000000000000000000000000000000000000000000000000000000000000002300000000000000000000000000000000000000000000000000000000000000000000000000000000000000000000000000000000000000000000000000000000
#014951:130000000000005300000000000000000000000000000000530000000000005300000000000000000000000000000000230000000000000000000000000000000000000000000000000000000000000000000000000000000000000000000000
#014921:000000000000000000000000530000000000005300000000000000000000000000000000530000000000005300000000000000000000000000000000000000000000000000000000000000000000000000000000000000000000000000000000
#015981:130000000000005300000000000000000000000000000000530000000000005300000000000000000000000000000000230000000000000000000000000000000000000000000000000000000000000000000000000000000000000000000000
#0159b1:000000000000000000000000530000000000005300000000000000000000000000000000530000000000005300000000000000000000000000000000000000000000000000000000000000000000000000000000000000000000000000000000
#016951:0000001300000000
#016921:0023
#018921:130000000000005300000000000000000000000000000000530000000000005300000000000000000000000000000000230000000000000000000000000000000000000000000000000000000000000000000000000000000000000000000000
#018951:000000000000000000000000530000000000005300000000000000000000000000000000530000000000005300000000000000000000000000000000000000000000000000000000000000000000000000000000000000000000000000000000
#0199b1:130000000000000000000000000000000000000000000000530000000000005300000000000000000000000000000000230000000000000000000000000000000000000000000000000000000000000000000000000000000000000000000000
#0199a1:005300000000000000000000000000000000000000000000
#019981:000000000000000000000000530000000000005300000000000000000000000000000000530000000000005300000000000000000000000000000000000000000000000000000000000000000000000000000000000000000000000000000000
#023951:00140000
#023921:000000000000000000000000000000000000000000000000000000000000002400000000000000000000000000000000000000000000000000000000000000000000000000000000000000000000000000000000000000000000000000000000
#0239a0:00140000
#023970:000000000000000000000000000000000000000000000000000000000000002400000000000000000000000000000000000000000000000000000000000000000000000000000000000000000000000000000000000000000000000000000000
#025950:0013000000000000
#025920:000000000000000000000000000000000000002300000000000000000000000000000000000000000000000000000000000000000000000000000000000000000000000000000000000000000000000000000000000000000000000000000000
#0259b1:0013000000000000
#025981:000000000000000000000000000000000000002300000000000000000000000000000000000000000000000000000000000000000000000000000000000000000000000000000000000000000000000000000000000000000000000000000000
#0259b1:000000000000000000000000000000000000000000000000000000000000001300000000000000000000000000000000000000000000000000000000000000000000000000000000000000000000000000000000000000000000000000000000
#025981:0000002300000000
#025950:000000000000000000000000000000000000000000000000000000000000001300000000000000000000000000000000000000000000000000000000000000000000000000000000000000000000000000000000000000000000000000000000
#025920:0000002300000000
#027970:00140000
#0279a0:000000000000000000000000000000000000000000000000000000000000002400000000000000000000000000000000000000000000000000000000000000000000000000000000000000000000000000000000000000000000000000000000
#027921:00140000
#027951:000000000000000000000000000000000000000000000000000000000000002400000000000000000000000000000000000000000000000000000000000000000000000000000000000000000000000000000000000000000000000000000000
#049951:00000014
#049921:000000000000000000000000000000000000000000000000000000000000000000000000000000000000000000000000000000000000000000000000000000000000000000000000000000000000002400000000000000000000000000000000
#0499a0:00000014
#049970:000000000000000000000000000000000000000000000000000000000000000000000000000000000000000000000000000000000000000000000000000000000000000000000000000000000000002400000000000000000000000000000000
#051980:0000000000130000
#0519b0:000000000000000000000000000000000000000000000000000000000000000000000000000000000000000000000000000000000000000000000000000000000000002300000000000000000000000000000000000000000000000000000000
#051921:0000000000130000
#051951:000000000000000000000000000000000000000000000000000000000000000000000000000000000000000000000000000000000000000000000000000000000000002300000000000000000000000000000000000000000000000000000000
#051921:000000000000000000000000000000000000000000000000000000000000000000000000000000000000000000000000000000000000000000000000000000000000000000000000000000000000001300000000000000000000000000000000
#051951:0000000000000023
#051980:000000000000000000000000000000000000000000000000000000000000000000000000000000000000000000000000000000000000000000000000000000000000000000000000000000000000001300000000000000000000000000000000
#0519b0:0000000000000023
#053970:00000014
#0539a0:000000000000000000000000000000000000000000000000000000000000000000000000000000000000000000000000000000000000000000000000000000000000000000000000000000000000002400000000000000000000000000000000
#053921:00000014
#053951:000000000000000000000000000000000000000000000000000000000000000000000000000000000000000000000000000000000000000000000000000000000000000000000000000000000000002400000000000000000000000000000000
#066921:0013
#066941:000000000000000000000000000000000000000000000000000000000000000000000000000000000000000000000000000000000000005300000000530000000000002300000000000000000000000000000000000000000000000000000000
#0669b1:00000013
#066991:000000000000000000000000000000000000000000000000000000000000000000000000000000000000000000000000000000000000000000000000000000000000000000000000000000000000005300000000530000000000002300000000
#0679b1:0013
#067981:000000000000000000000000000000000000000000000000000000000000000000000000000000000000000000000000000000000000005300000000530000000000002300000000000000000000000000000000000000000000000000000000
#067921:00000013
#067951:000000000000000000000000000000000000000000000000000000000000000000000000000000000000000000000000000000000000000000000000000000000000000000000000000000000000005300000000530000000000002300000000
#068921:0013
#068961:000000000000000000000000000000000000000000000000000000000000000000000000000000000000000000000000000000000000005300000000530000000000002300000000000000000000000000000000000000000000000000000000
#0689b1:00000013
#068971:000000000000000000000000000000000000000000000000000000000000000000000000000000000000000000000000000000000000000000000000000000000000000000000000000000000000005300000000530000000000002300000000
