This file was generated by Ched 2.7.0.0.
#TITLE ""
#ARTIST ""
#DESIGNER ""
#DIFFICULTY 0
#PLAYLEVEL
#SONGID ""
#WAVE ""
#WAVEOFFSET 0
#JACKET ""
#REQUEST "ticks_per_beat 480"
#00002: 4
#BPM01: 134
#00008: 01
#TIL00: ""
#VOLUME: ""
#HISPEED 00
#MEASUREHS 00
#0051b:0000130000130000
#00516:0000130000130000
#00512:000000000000000000000000000000000000000000000000000000000000000000000000000000000000001300000000000000000000000000000000000000000000000000000000000000000000000000000000000000000000000000000000
#00517:000000000000000000000000000000000000000000000000000000000000000000000000000000000000001300000000000000000000000000000000000000000000000000000000000000000000000000000000000000000000000000000000
#0061b:00131300
#00615:0000001300000000
#00612:23000013
#00617:23
#00610:41
#00215:00001313
#00218:0000000000130000
#0021a:00140000
#0031a:14
#00312:00140000
#00318:00001313
#00315:0000000000130000
#00412:140000000000000000000000000000000000000000000000000000000000000000000000000000000000000000000000000000000000000000000000000000000000000000000000000000000000000000000000000000000000002300000000
#0041a:00140000
#00415:00001313
#00418:0000000000130000
#00417:000000000000000000000000000000000000000000000000000000000000000000000000000000000000000000000000000000000000000000000000000000000000000000000000000000000000000000000000000000000000002300000000
#00712:00131300
#00718:0000001300000000
#0071b:23000013
#00716:23
#00812:13000013
#0081b:00130000
#00815:0013
#00818:0000000000130000
#0091b:13000013
#00912:00130000
#00918:0013
#00915:0000000000130000
#01012:00131300
#01018:0000001300000000
#0101b:23000013
#01016:23
#0111b:00131300
#01115:0000001300000000
#01112:23000013
#01117:23
#0121b:13000013
#01212:00130000
#01218:0013
#01215:0000000000130000
#01312:13000013
#0131b:00130000
#01315:0013
#01318:0000000000130000
#01414:00130000
#0141b:0000000000000013
#01416:2300000000000013
#01417:000000000000003300000000330000000000000000000000330000000000003300000000330000000000003300000000000000000000000000000000000000000000000000000000000000000000000000000000000000000000000000000000
#01410:41
#01519:00130000
#01512:0000000000000013
#01517:23
#01516:000000000000003300000000330000000000003300000000330000000000000000000000330000000000003300000000000000000000000000000000000000000000000000000000000000000000000000000000000000000000000000000000
#01513:000000000000000000000053
#01514:000000000000000000000000000000000000000000000053
#01615:53130000
#01618:0013001300000000
#0161a:0000000000000014
#01716:00000000001400000000000000000000
#01812:14
#01818:00140000
#01814:0014
#0181a:00000014
#01912:140000000000000000000000000000000000000000000000000000000000000000000000000000000000000000000000000000000000000000000000000000000000000000000000000000000000000000000000000000000000002400000000
#01918:00140000
#01914:0014
#0191a:000000000000000000000000000000000000000000000000000000000000000000000000000000000000000000000000000000000000000000000000000000000000000000000000140000000000000000000000000000000000002400000000
#02018:000000000000000000000000000000000000000000000000000000000000000000000000000000000000000000000000130000000000000000000000000000000000001300000000000000000000000000000000000000000000000000000000
#02015:000000000000000000000000000000000000000000000000000000000000000000000000000000000000000000000000000000000000001300000000000000000000000000000000000000000000000000000000130000000000000000000000
#02012:0024240000000000
#0201a:0024240000000000
#0251b:0013000000000000
#02515:000000000000000000000000000000000000001300000000000000000000000000000000000000000000000000000000240000000000000000000000000000000000000000000000000000000000000000000000000000000000000000000000
#02518:000000000000000000000000000000000000000000000000000000000000001300000000000000000000000000000000000000000000000000000000000000000000000000000000000000000000000000000000000000000000000000000000
#02512:0000001300000000
#0251a:0024
#02915:0013001300000000
#02918:00130000
#03012:0000131300001300
#03018:0000000013130000
#0301a:24
#03010:00000041
#03115:0000000000130000
#0311b:00135313
#0311a:000000000000005300000053000000000000000000000000
#03119:000000005353000000000000
#03118:0000005300000000
#0331b:00130000
#03312:0014
#03316:000000000000000000000000000000000000000000000000000000000000000000000000000000000000000000000000000000000000000000000000000000000000001400000000000000000000000000000000000000000000000000000000
#0331a:0000000000000014
#03212:0000131300001300
#03218:0000000013130000
#0341b:0000131300001300
#03415:0000000013130000
#03412:24
#03518:0000000000130000
#03512:00135313
#03513:000000000000005300000053000000000000000000000000
#03514:000000005353000000000000
#03515:0000005300000000
#0401b:0013
#04012:13
#0401f:11
#04115:0013
#0411b:13
#04218:0013
#04215:13
#04315:0013
#04318:13
#04412:0013
#04418:0013
#04415:13
#04615:0013
#04612:13
#0461b:0013
#04515:0013
#0451b:0013
#04518:13
#0471b:13
#0481b:0013
#04812:0000000000130000
#04818:23000026
#04815:00230000
#0481f:00000021
#0491b:0000001300000000
#04915:000000000000000000000000000000000000001300000000000000000000000000000000000000000000000000000000000000000000000000000000000000000000000000000000130000000000000000000000000000000000000000000000
#04918:000000000000000000000000130000000000000000000000000000000000000000000000000000000000000000000000130000000000000000000000000000000000000000000000000000000000001300000000000000000000000000000000
#04912:130000000000000000000000000000000000000000000000000000000000000000000000000000000000000000000000000000000000000000000000000000000000000000000000000000000000000000000000000000000000001300000000
#04910:0041
#0551b:000000000000000000000000000000000000000000000000130000000000003300000000000000000000000000000000000000000000000000000000130000000000000000000000000000000000000000000000000000000000000000000000
#05518:0000000000000013
#05515:00000013
#05516:000000000000000000000000000000000000000000000000130000000000003300000000000000000000000000000000000000000000000000000000000000000000000000000000000000000000000000000000000000000000000000000000
#05512:000000000000000000000000000000000000000000000000000000000000000000000000000000000000002300000000000000000000000000000000130000000000000000000000000000000000000000000000000000000000000000000000
#05517:000000000000000000000000000000000000000000000000000000000000000000000000000000000000002300000000000000000000000000000000000000000000000000000000000000000000000000000000000000000000000000000000
#05615:00000013
#0561b:0000000000000013
#05618:0000000000130000
#05612:0024
#05718:13
#05715:0013000000001300
#0571a:00140000
#05717:0000001400000000
#05714:000000000000000000000000000000000000005300000053
#05713:000000000000000000005353
#05712:0000000000000053
#05818:0013000000000013
#0581b:00000013
#05812:00140000
#05815:5300001400000000
#05912:0013000000001400
#05915:13
#0591a:00140000
#05917:0000001400000000
#0601a:1424
#06016:000000000000000000000000000000000000001400000000000000000000000000000000000000000000000000000000000000000000000000000000000000000000000000000000000000000000000000000000000000000000000000000000
#06012:0000001400000013
#06018:00000013
#06015:0000000000130000
#0511b:0000000000130000
#05115:000000000000000000000000000000000000000000000000000000000000000000000000000000000000000000000000000000000000000000000000000000000000001300000000000000000000000000000000000000000000000000000000
#05118:000000000000000000000000000000000000000000000000000000000000000000000000000000000000000000000000000000000000000000000000000000000000000000000000000000000000001300000000000000000000000000000000
#05112:000000000000000000000000000000000000000000000000130000000000003300000000000000000000000000000000000000000000000000000000000000000000000000000000000000000000000000000000130000000000000000000000
#05117:000000000000000000000000000000000000000000000000130000000000003300000000000000000000000000000000000000000000000000000000000000000000000000000000000000000000000000000000000000000000000000000000
#05318:000000000000000000000000000000000000001300000000000000000000000000000000000000000000000000000000000000000000000000000000000000000000000000000000130000000000000000000000000000000000000000000000
#05315:000000000000000000000000130000000000000000000000000000000000000000000000000000000000000000000000000000000000000000000000000000000000000000000000000000000000001300000000000000000000000000000000
#0531b:130000000000000000000000000000000000000000000000000000000000000000000000000000000000000000000000000000000000000000000000000000000000000000000000000000000000000000000000000000000000001300000000
#05316:0014
#05312:0000002400000000
#05212:0000000000130000
#05218:0000000000130000
#05215:2423
#0521a:24
#0521b:0023
#06115:1300001400000000
#06118:0013000000001300
#06112:00140000
#06119:000000000000000000000000000000000000005300000053
#0611a:000000000000000000005353
#0611b:0000000000000053
#06215:0013000000000000
#0621a:00142400
#06217:0000001400000000
#06214:0000000000240000
#06210:0041
#06218:53
#06315:0000000000000000000000000014000000000000000000000000000000000000
#06318:0000000000240000
#06312:000000000000000000000000000000000000000000000000000000000000002400000000000000000000000000000000000000000000000000000000000000000000000000000000000000000000000000000000000000000000000000000000
#06417:0000000000000000000000000014000000000000000000000000000000000000
#06414:0000000000240000
#0641a:000000000000000000000000000000000000000000000000000000000000002400000000000000000000000000000000000000000000000000000000000000000000000000000000000000000000000000000000000000000000000000000000
#06515:0000000000000000000000000014000000000000000000000000000000000000
#06512:000000000000000000000000000000000000000000000000000000000000002400000000000000000000000000000000000000000000000000000000000000000000000000000000000000000000000000000000000000000000000000000000
#0651a:000000000000000000000000000000000000000000000000000000000000000000000000000000000000000000000000000000000000000000000000000000000000002400000000000000000000000000000000000000000000000000000000
#06514:0000000000000024
#06912:00000013
#06917:00000013
#0691b:000000000000000000000000000000000000000000000000000000000000000000000000000000000000002300000000000000000000000000000000000000000000000000000000000000000000000000000000000000000000001300000000
#06916:000000000000000000000000000000000000000000000000000000000000000000000000000000000000002300000000000000000000000000000000000000000000000000000000000000000000000000000000000000000000001300000000
#06918:13130000
#06915:0013000000000000
#0671b:13
#06718:0013001300000000
#06715:00130000
#06712:0014
#0671a:00000014
#06612:00240014
#06618:000000000000002400000000000000000000000000000000000000000000000000000000000000000000000000000000260000000000000000000000000000000000000000000000000000000000000000000000000000000000000000000000
#06812:13000014
#06815:0013001300000000
#06818:00130000
#0681a:0014
#07113:000012
#0711b:000000230000000012000000
#07112:000000000000002300000000000000000000000000000000000000000000000000000000000000000000000000000000000000000000000000000000000000000000000000000000240000000000000000000000000000000000000000000000
#07117:000000000000002300000000000000000000000000000000000000000000000000000000000000000000000000000000000000000000000000000000000000000000000000000000000000000000000000000000000000000000000000000000
#07116:00230000
#0711a:00000024
#02212:0000000000000013
#0221b:2313
#02215:0000000000130000
#02218:000000000000000000000000000000000000000000000000000000000000000000000000000000000000000000000000000000000000000000000000000000000000001300000000000000000000000000000000000000000000000000000000
#02216:23
#02210:41
#02318:00130000
#02315:130000000000000000000000000000000000000000000000000000000000001300000000000000000000000000000000000000000000000000000000000000000000000000000000000000000000000000000000000000000000000000000000
#0231b:000000000000000000000000000000000000000000000000000000000000000000000000000000000000001300000000000000000000000000000000000000000000000000000000000000000000000000000000000000000000000000000000
#02316:000000000000000000000000000000000000000000000000000000000000000000000000000000000000000000000000000000000000000000000000000000000000000000000000130000000000003300000000000000000000000000000000
#0261b:0000000000000013
#02612:2313
#02618:0000000000130000
#02615:000000000000000000000000000000000000000000000000000000000000000000000000000000000000000000000000000000000000000000000000000000000000001300000000000000000000000000000000000000000000000000000000
#02617:23
#02715:00130000
#02718:130000000000000000000000000000000000000000000000000000000000001300000000000000000000000000000000000000000000000000000000000000000000000000000000000000000000000000000000000000000000000000000000
#02712:000000000000000000000000000000000000000000000000000000000000000000000000000000000000001300000000000000000000000000000000000000000000000000000000000000000000000000000000000000000000000000000000
#02717:000000000000000000000000000000000000000000000000000000000000000000000000000000000000000000000000000000000000000000000000000000000000000000000000130000000000003300000000000000000000000000000000
#02417:000000000000000000000000000000000000000000000000130000000000003300000000000000000000000000000000000000000000000000000000000000000000000000000000000000000000000000000000000000000000000000000000
#02416:000000000000000000000000000000000000000000000000000000000000000000000000000000000000000000000000000000000000000000000000000000000000000000000000130000000000003300000000000000000000000000000000
#02816:000000000000000000000000000000000000000000000000130000000000003300000000000000000000000000000000000000000000000000000000000000000000000000000000000000000000000000000000000000000000000000000000
#02817:000000000000000000000000000000000000000000000000000000000000000000000000000000000000000000000000000000000000000000000000000000000000000000000000130000000000003300000000000000000000000000000000
#0281b:000000000000000000000000000000000000000000000000000000000000000000000000000000000000000000000000000000000000000000000000000000000000000000000000000000000000000000000000000000000000002300000000
#05012:000000000000000000000000000000000000000000000000130000000000003300000000000000000000000000000000000000000000000000000000000000000000000000000000000000000000000000000000000000000000000000000000
#05017:000000000000000000000000000000000000000000000000130000000000003300000000000000000000000000000000000000000000000000000000000000000000000000000000000000000000000000000000000000000000000000000000
#0501b:000000000000000000000000000000000000000000000000000000000000000000000000000000000000000000000000000000000000000000000000000000000000000000000000130000000000003300000000000000000000000000000000
#05016:000000000000000000000000000000000000000000000000000000000000000000000000000000000000000000000000000000000000000000000000000000000000000000000000130000000000003300000000000000000000000000000000
#0541b:000000000000000000000000000000000000000000000000130000000000003300000000000000000000000000000000000000000000000000000000000000000000000000000000000000000000000000000000000000000000000000000000
#05416:000000000000000000000000000000000000000000000000130000000000003300000000000000000000000000000000000000000000000000000000000000000000000000000000000000000000000000000000000000000000000000000000
#05412:000000000000000000000000000000000000000000000000000000000000000000000000000000000000000000000000000000000000000000000000000000000000000000000000130000000000003300000000000000000000000000000000
#05417:000000000000000000000000000000000000000000000000000000000000000000000000000000000000000000000000000000000000000000000000000000000000000000000000130000000000003300000000000000000000000000000000
#00012:2424000000000000
#0001a:2424000000000000
#0011a:24
#00118:000000000000000000000000000000000000002400000000000000000000000000000000000000000000000000000000000000000000000000000000000000000000000000000000000000000000000000000000000000000000000000000000
#00116:0000002400000000
#00114:000000000000000000000000000000000000000000000000000000000000000000000000000000000000000000000000000000000000002400000000000000000000000000000000000000000000000000000000000000000000000000000000
#00112:00000024
#02112:0024000024000000
#0211a:000000000000000000000000000000000000000000000000000000000000002400000000000000000000000000000000000000000000000000000000000000000000000000000000000000000000000000000000000000000000000000000000
#03616:23
#0361b:000000000000000000000000230000000000000000000000000000000000000000000000000000000000000000000000000000000000000000000000000000000000000000000000000000000000002300000000000000000000000000000000
#03712:000000000000000000000000230000000000000000000000000000000000000000000000000000000000000000000000000000000000000000000000000000000000000000000000000000000000002300000000000000000000000000000000
#0381b:000000000000000000000000230000000000000000000000000000000000000000000000000000000000000000000000000000000000000000000000000000000000000000000000000000000000002300000000000000000000000000000000
#03912:000000000000000000000000000000000000002300000000000000000000000000000000000000000000000000000000000000000000000000000000000000000000000000000000000000000000000000000000000000000000000000000000
#03919:0000002300000000
#03914:000000000000000000000000000000000000000000000000000000000000000000000000000000000000000000000000000000000000002300000000000000000000000000000000000000000000000000000000000000000000000000000000
#0391b:00000023
#07016:0000000023000023
#07012:000000000000000000000000000000000000000000000000000000000000000000000000000000000000000000000000000000000000000000000000000000000000002300000000000000000000000000000000000000000000000000000000
#07017:000000000000000000000000000000000000000000000000000000000000000000000000000000000000000000000000000000000000000000000000000000000000002300000000000000000000000000000000000000000000000000000000
#0701b:0000000023000023
#00556:0000000000630000
#00552:000000000000000000000000000000000000000000000000000000000000000000000000000000000000005300000000000000000000000000000000000000000000000000000000000000000000000000000000000000000000000000000000
#0055b:0000000000530000
#00557:000000000000000000000000000000000000000000000000000000000000000000000000000000000000005300000000000000000000000000000000000000000000000000000000000000000000000000000000000000000000000000000000
#00652:13
#00657:13
#02152:0014000014000000
#0215a:000000000000000000000000000000000000000000000000000000000000001400000000000000000000000000000000000000000000000000000000000000000000000000000000000000000000000000000000000000000000000000000000
#04858:13000046
#04855:00130000
#00252:14
#0025a:00140000
#0035a:14
#00352:00140000
#00452:140000000000000000000000000000000000000000000000000000000000000000000000000000000000000000000000000000000000000000000000000000000000000000000000000000000000000000000000000000000000006300000000
#0045a:00140000
#00457:000000000000000000000000000000000000000000000000000000000000000000000000000000000000000000000000000000000000000000000000000000000000000000000000000000000000000000000000000000000000006300000000
#00852:13000013
#0085b:00130000
#0095b:13000013
#00952:00130000
#0125b:13000013
#01252:00130000
#01352:13000013
#0135b:00130000
#01756:00000000002400000000000000000000
#0165a:0000000000000054
#00052:000000000000000000000000000000000000000000000000000000000000000000000000000000000000000000000000000000000000000000000000000000000000000000000000000000000000001400000000000000000000000000000000
#0005a:000000000000000000000000000000000000000000000000000000000000000000000000000000000000000000000000000000000000000000000000000000000000000000000000000000000000001400000000000000000000000000000000
#01852:14
#01858:00140000
#01854:0014
#0185a:00000014
#01952:14
#01958:00140000
#01954:0014
#0195a:00000014
#02055:0000000000000053
#02252:0000130000000063
#02257:00130000
#02256:53
#0225b:53
#02555:00000014
#0255a:00000014
#02952:00000013
#0335b:00130000
#03356:13
#03052:00000053
#03156:13
#0315b:00000063
#03257:13
#03252:00000053
#0345b:00000063
#03552:00000053
#03557:13
#03656:13
#0365b:000000000000000000000000130000000000000000000000000000000000000000000000000000000000000000000000000000000000000000000000000000000000000000000000000000000000005300000000000000000000000000000000
#03752:000000000000000000000000130000000000000000000000000000000000000000000000000000000000000000000000000000000000000000000000000000000000000000000000000000000000006300000000000000000000000000000000
#03757:13
#0385b:000000000000000000000000130000000000000000000000000000000000000000000000000000000000000000000000000000000000000000000000000000000000000000000000000000000000005300000000000000000000000000000000
#03856:13
#03957:13
#03952:000000000000000000000000000000000000001300000000000000000000000000000000000000000000000000000000000000000000000000000000000000000000000000000000000000000000000000000000000000000000000000000000
#03959:0000001300000000
#03954:000000000000000000000000000000000000000000000000000000000000000000000000000000000000000000000000000000000000001300000000000000000000000000000000000000000000000000000000000000000000000000000000
#0395b:00000013
#04052:63
#0415b:63
#04255:63
#04358:53
#04452:0023
#04455:53
#04655:0023
#04652:63
#0455b:0023
#04558:63
#0475b:53
#04952:000000000000000000000000000000000000000000000000000000000000000000000000000000000000000000000000000000000000000000000000000000000000000000000000000000000000000000000000000000000000001300000000
#0495b:0000005300000000
#04958:0023
#05952:00000014
#0595a:00641400
#05957:0000002400000000
#0565b:00130000
#05056:000000000000000000000000000000000000000000000000000000000000000000000000000000000000001300000000000000000000000000000000000000000000000000000000630000000000000000000000000000000000000000000000
#0505b:000000000000000000000000000000000000000000000000000000000000000000000000000000000000001300000000000000000000000000000000000000000000000000000000630000000000000000000000000000000000000000000000
#05057:000000000000000000000000000000000000000000000000530000000000000000000000000000000000000000000000000000000000000000000000000000000000000000000000000000000000000000000000000000000000001300000000
#05052:000000000000000000000000000000000000000000000000530000000000000000000000000000000000000000000000000000000000000000000000000000000000000000000000000000000000000000000000000000000000001300000000
#05252:0000140000230000
#05257:00140000
#05255:54005313
#0525a:54
#0525b:00005313
#05258:0000000000230000
#0535b:000000000000000000000000000000000000000000000000000000000000000000000000000000000000000000000000000000000000000000000000000000000000000000000000000000000000000000000000000000000000001300000000
#05356:0024
#05352:0000005400000000
#0625a:00641400
#06257:0000002400000000
#06254:0000000000140000
#06152:00541400
#06155:0000002400000000
#06358:0000000000140000
#06352:000000000000000000000000000000000000000000000000000000000000006400000000000000000000000000000000140000000000000000000000000000000000000000000000000000000000000000000000000000000000000000000000
#06355:0000000000000000000000000024000000000000000000000000000000000000
#05852:00541400
#05855:0000002400000000
#0575a:00641400
#05757:0000002400000000
#06457:0000000000000000000000000024000000000000000000000000000000000000
#06454:0000000000140000
#0645a:000000000000000000000000000000000000000000000000000000000000005400000000000000000000000000000000140000000000000000000000000000000000000000000000000000000000000000000000000000000000000000000000
#06555:0000000000000000000000000024000000000000000000000000000000000000
#06552:000000000000000000000000000000000000000000000000000000000000006400000000000000000000000000000000140000000000000000000000000000000000000000000000000000000000000000000000000000000000000000000000
#0655a:000000000000000000000000000000000000000000000000000000000000000000000000000000000000000000000000000000000000000000000000000000000000001400000000000000000000000000000000000000000000000000000000
#06554:0000000000000014
#06658:000000000000001400000000000000000000000000000000000000000000000000000000000000000000000000000000160000000000000000000000000000000000000000000000000000000000000000000000000000000000000000000000
#06652:00140014
#0695b:000000000000000000000000000000000000000000000000000000000000000000000000000000000000005300000000000000000000000000000000000000000000000000000000000000000000000000000000000000000000006300000000
#06956:000000000000000000000000000000000000000000000000000000000000000000000000000000000000005300000000000000000000000000000000000000000000000000000000000000000000000000000000000000000000006300000000
#06752:0014
#0675a:00000014
#0685a:0014
#06852:00000014
#07052:0013000000000000
#07057:0013000000000000
#07153:000022
#0715b:000000130000000022000000
#07156:00130000
#07152:00000014
#0715a:00000014
#0235b:000000000000000000000000000000000000000000000000000000000000000000000000000000000000001300000000000000000000000000000000000000000000000000000000000000000000000000000000000000000000000000000000
#02355:23
#02356:00000053
#02352:000000000000000000000000000000000000000000000000000000000000000000000000000000000000000000000000000000000000000000000000000000000000000000000000000000000000000000000000000000000000001300000000
#0265b:0000130000000053
#02657:63
#02652:63
#02656:00130000
#02752:000000000000000000000000000000000000000000000000000000000000000000000000000000000000001300000000000000000000000000000000000000000000000000000000000000000000000000000000000000000000000000000000
#02758:23
#02757:00000063
#0275b:000000000000000000000000000000000000000000000000000000000000000000000000000000000000000000000000000000000000000000000000000000000000000000000000000000000000000000000000000000000000001300000000
#02457:00530000
#02456:00000063
#0245b:000000000000000000000000000000000000000000000000000000000000000000000000000000000000001300000000000000000000000000000000000000000000000000000000000000000000000000000000000000000000000000000000
#02452:000000000000000000000000000000000000000000000000000000000000000000000000000000000000000000000000000000000000000000000000000000000000000000000000000000000000000000000000000000000000001300000000
#02856:00630000
#02857:00000053
#0285b:000000000000000000000000000000000000000000000000000000000000000000000000000000000000000000000000000000000000000000000000000000000000000000000000000000000000000000000000000000000000001300000000
#02852:000000000000000000000000000000000000000000000000000000000000000000000000000000000000001300000000000000000000000000000000000000000000000000000000000000000000000000000000000000000000000000000000
#05152:00530000
#05157:00530000
#05156:000000000000000000000000000000000000000000000000000000000000000000000000000000000000001300000000000000000000000000000000000000000000000000000000000000000000000000000000000000000000000000000000
#0515b:000000000000000000000000000000000000000000000000000000000000000000000000000000000000001300000000000000000000000000000000000000000000000000000000000000000000000000000000000000000000000000000000
#0545b:000000000000000000000000000000000000000000000000630000000000000000000000000000000000000000000000000000000000000000000000000000000000000000000000000000000000000000000000000000000000001300000000
#05456:000000000000000000000000000000000000000000000000630000000000000000000000000000000000000000000000000000000000000000000000000000000000000000000000000000000000000000000000000000000000001300000000
#05452:000000000000000000000000000000000000000000000000000000000000000000000000000000000000001300000000000000000000000000000000000000000000000000000000530000000000000000000000000000000000000000000000
#05457:000000000000000000000000000000000000000000000000000000000000000000000000000000000000001300000000000000000000000000000000000000000000000000000000530000000000000000000000000000000000000000000000
#0555b:00630000
#05556:00630000
#05557:000000000000000000000000000000000000000000000000000000000000000000000000000000000000001300000000000000000000000000000000000000000000000000000000000000000000000000000000000000000000000000000000
#05552:000000000000000000000000000000000000000000000000000000000000000000000000000000000000001300000000000000000000000000000000000000000000000000000000000000000000000000000000000000000000000000000000
#000320:000000000000000000000000140000000000000000000000000000000000000000000000000000000000000000000000000000000000000000000000000000000000000000000000000000000000002400000000000000000000000000000000
#0003a1:000000000000000000000000140000000000000000000000000000000000000000000000000000000000000000000000000000000000000000000000000000000000000000000000000000000000002400000000000000000000000000000000
#001321:00000014
#002321:24
#004371:000000000000000000000000000000000000000000000000000000000000000000000000000000000000000000000000000000000000000000000000000000000000000000000000000000000000000000000000000000000000001300000000
#0053b1:0023000000000000
#004320:000000000000000000000000000000000000000000000000000000000000000000000000000000000000000000000000000000000000000000000000000000000000000000000000000000000000000000000000000000000000001300000000
#005360:0023000000000000
#005320:000000000000000000000000000000000000000000000000000000000000000000000000000000000000001300000000000000000000000000000000000000000000000000000000000000000000000000000000000000000000000000000000
#005360:0000000000330000
#006320:23
#005371:000000000000000000000000000000000000000000000000000000000000000000000000000000000000001300000000000000000000000000000000000000000000000000000000000000000000000000000000000000000000000000000000
#0053b1:0000000000330000
#006371:23
#0143b1:13
#014371:000000000000003300000000330000000000000000000000330000000000003300000000330000000000003300000000330000000000003300000000000000000000002300000000000000000000000000000000000000000000000000000000
#014320:000000000000000000000000000000000000000000000000000000000000000000000000000000000000000000000000130000000000003300000000000000000000002300000000000000000000000000000000000000000000000000000000
#015320:13
#015360:000000000000003300000000330000000000003300000000330000000000000000000000330000000000003300000000330000000000000000000000330000000000002300000000000000000000000000000000000000000000000000000000
#0153b1:000000000000000000000000000000000000000000000000000000000000000000000000000000000000000000000000130000000000000000000000330000000000002300000000000000000000000000000000000000000000000000000000
#016321:000000000000000000000000000000000000000000000000000000000000000000000000000000000000000000000000130000000000003300000000000000000000002300000000000000000000000000000000000000000000000000000000
#0163b0:000000000000000000000000000000000000000000000000000000000000000000000000000000000000000000000000130000000000003300000000000000000000002300000000000000000000000000000000000000000000000000000000
#0163a0:0000000000000014
#017360:00000000005400000000000000000000
#0173a0:00000024
#020350:0000000000000013
#021320:0024000000000000
#022360:13
#022320:00230000
#0223b1:13
#022371:00230000
#022321:0000000000000013
#023351:53
#023321:0023000000000000
#023321:000000000000000000000000000000000000000000000000000000000000000000000000000000000000000000000000000000000000000000000000130000000000000000000000000000000000000000000000000000000000002300000000
#023361:000000000000000000000000000000000000000000000000000000000000000000000000000000000000000000000000000000000000000000000000000000000000000000000000330000000000003300000000000000000000000000000000
#0243b1:000000000000000000000000130000000000000000000000000000000000000000000000000000000000002300000000000000000000000000000000000000000000000000000000000000000000000000000000000000000000000000000000
#024371:000000000000000000000000000000000000000000000000330000000000003300000000000000000000000000000000000000000000000000000000000000000000000000000000000000000000000000000000000000000000000000000000
#024321:000000000000000000000000000000000000000000000000000000000000000000000000000000000000000000000000000000000000000000000000130000000000000000000000000000000000000000000000000000000000002300000000
#024361:000000000000000000000000000000000000000000000000000000000000000000000000000000000000000000000000000000000000000000000000000000000000000000000000330000000000003300000000000000000000000000000000
#025351:00001424
#0253a0:00001424
#026370:13
#0263b0:00230000
#026321:13
#026361:00230000
#0263b1:0000000000000013
#027381:53
#0273b1:0023000000000000
#0273b1:000000000000000000000000000000000000000000000000000000000000000000000000000000000000000000000000000000000000000000000000130000000000000000000000000000000000000000000000000000000000002300000000
#027371:000000000000000000000000000000000000000000000000000000000000000000000000000000000000000000000000000000000000000000000000000000000000000000000000330000000000003300000000000000000000000000000000
#028321:000000000000000000000000130000000000000000000000000000000000000000000000000000000000002300000000000000000000000000000000000000000000000000000000000000000000000000000000000000000000000000000000
#028361:000000000000000000000000000000000000000000000000330000000000003300000000000000000000000000000000000000000000000000000000000000000000000000000000000000000000000000000000000000000000000000000000
#0283b1:000000000000000000000000000000000000000000000000000000000000000000000000000000000000000000000000000000000000000000000000130000000000000000000000000000000000000000000000000000000000002300000000
#028371:000000000000000000000000000000000000000000000000000000000000000000000000000000000000000000000000000000000000000000000000000000000000000000000000330000000000003300000000000000000000000000000000
#029321:00001323
#030321:00000013
#031361:23
#0313b1:00000013
#032371:23
#032321:00000013
#033361:23
#0343b1:00000013
#035371:23
#035321:00000013
#036361:23
#0363b1:000000000000000000000000000000000000000000000000000000000000000000000000000000000000000000000000000000000000000000000000000000000000000000000000000000000000001300000000000000000000000000000000
#037371:23
#037321:000000000000000000000000000000000000000000000000000000000000000000000000000000000000000000000000000000000000000000000000000000000000000000000000000000000000001300000000000000000000000000000000
#038361:23
#0383b1:000000000000000000000000000000000000000000000000000000000000000000000000000000000000000000000000000000000000000000000000000000000000000000000000000000000000001300000000000000000000000000000000
#039371:23
#040321:13
#040351:0033
#041351:23
#0413b0:13
#041380:0033
#042380:23
#042351:13
#042321:0033
#043321:23
#043380:13
#0433b0:0033
#0443b0:23
#044351:13
#044321:0033
#045351:23
#045380:13
#0453b0:0033
#046380:23
#046321:13
#046351:0033
#047321:23
#0473b0:13
#047380:0033
#048380:23
#0493b0:0000001300230000
#049380:0053
#050360:000000000000000000000000130000000000000000000000000000000000000000000000000000000000002300000000000000000000000000000000000000000000000000000000000000000000000000000000000000000000000000000000
#050320:000000000000000000000000000000000000000000000000330000000000003300000000000000000000000000000000000000000000000000000000000000000000000000000000000000000000000000000000000000000000000000000000
#0503b1:000000000000000000000000130000000000000000000000000000000000000000000000000000000000002300000000000000000000000000000000000000000000000000000000000000000000000000000000000000000000000000000000
#050371:000000000000000000000000000000000000000000000000330000000000003300000000000000000000000000000000000000000000000000000000000000000000000000000000000000000000000000000000000000000000000000000000
#050371:000000000000000000000000000000000000000000000000000000000000000000000000000000000000000000000000000000000000000000000000130000000000000000000000000000000000000000000000000000000000002300000000
#0503b1:000000000000000000000000000000000000000000000000000000000000000000000000000000000000000000000000000000000000000000000000000000000000000000000000330000000000003300000000000000000000000000000000
#050320:000000000000000000000000000000000000000000000000000000000000000000000000000000000000000000000000000000000000000000000000130000000000000000000000000000000000000000000000000000000000002300000000
#050360:000000000000000000000000000000000000000000000000000000000000000000000000000000000000000000000000000000000000000000000000000000000000000000000000330000000000003300000000000000000000000000000000
#051360:000000000000000000000000130000000000000000000000000000000000000000000000000000000000002300000000000000000000000000000000000000000000000000000000000000000000000000000000000000000000000000000000
#051320:000000000000000000000000000000000000000000000000330000000000003300000000000000000000000000000000000000000000000000000000000000000000000000000000000000000000000000000000000000000000000000000000
#0513b1:000000000000000000000000130000000000000000000000000000000000000000000000000000000000002300000000000000000000000000000000000000000000000000000000000000000000000000000000000000000000000000000000
#051371:000000000000000000000000000000000000000000000000330000000000003300000000000000000000000000000000000000000000000000000000000000000000000000000000000000000000000000000000000000000000000000000000
#052351:14
#052321:00240000
#0523a0:14
#052370:00240000
#052350:00001323
#052320:0000000000530000
#0523b1:00001323
#052381:0000000000530000
#053321:0000001400240000
#053361:0054
#054371:000000000000000000000000130000000000000000000000000000000000000000000000000000000000002300000000000000000000000000000000000000000000000000000000000000000000000000000000000000000000000000000000
#0543b1:000000000000000000000000000000000000000000000000330000000000003300000000000000000000000000000000000000000000000000000000000000000000000000000000000000000000000000000000000000000000000000000000
#054320:000000000000000000000000130000000000000000000000000000000000000000000000000000000000002300000000000000000000000000000000000000000000000000000000000000000000000000000000000000000000000000000000
#054360:000000000000000000000000000000000000000000000000330000000000003300000000000000000000000000000000000000000000000000000000000000000000000000000000000000000000000000000000000000000000000000000000
#054360:000000000000000000000000000000000000000000000000000000000000000000000000000000000000000000000000000000000000000000000000130000000000000000000000000000000000000000000000000000000000002300000000
#054320:000000000000000000000000000000000000000000000000000000000000000000000000000000000000000000000000000000000000000000000000000000000000000000000000330000000000003300000000000000000000000000000000
#0543b1:000000000000000000000000000000000000000000000000000000000000000000000000000000000000000000000000000000000000000000000000130000000000000000000000000000000000000000000000000000000000002300000000
#054371:000000000000000000000000000000000000000000000000000000000000000000000000000000000000000000000000000000000000000000000000000000000000000000000000330000000000003300000000000000000000000000000000
#055371:000000000000000000000000130000000000000000000000000000000000000000000000000000000000002300000000000000000000000000000000000000000000000000000000000000000000000000000000000000000000000000000000
#0553b1:000000000000000000000000000000000000000000000000330000000000003300000000000000000000000000000000000000000000000000000000000000000000000000000000000000000000000000000000000000000000000000000000
#055320:000000000000000000000000130000000000000000000000000000000000000000000000000000000000002300000000000000000000000000000000000000000000000000000000000000000000000000000000000000000000000000000000
#055360:000000000000000000000000000000000000000000000000330000000000003300000000000000000000000000000000000000000000000000000000000000000000000000000000000000000000000000000000000000000000000000000000
#0563b0:13230000
#0573a0:00142400
#057370:0000005400000000
#058320:00142400
#058350:0000005400000000
#0593a0:00142400
#059370:0000005400000000
#061320:00142400
#061350:0000005400000000
#0623a0:00142400
#062370:0000005400000000
#063320:000000000000000000000000000000000000000000000000000000000000001400000000000000000000000000000000240000000000000000000000000000000000000000000000000000000000000000000000000000000000000000000000
#063350:0000000000000000000000000054000000000000000000000000000000000000
#0643a0:000000000000000000000000000000000000000000000000000000000000001400000000000000000000000000000000240000000000000000000000000000000000000000000000000000000000000000000000000000000000000000000000
#064370:0000000000000000000000000054000000000000000000000000000000000000
#065320:000000000000000000000000000000000000000000000000000000000000001400000000000000000000000000000000240000000000000000000000000000000000000000000000000000000000000000000000000000000000000000000000
#065350:0000000000000000000000000054000000000000000000000000000000000000
#069360:000000000000000000000000000000000000000000000000000000000000000000000000000000000000001300000000000000000000000000000000000000000000000000000000000000000000000000000000000000000000000000000000
#069320:0000000000230000
#0693b1:000000000000000000000000000000000000000000000000000000000000000000000000000000000000001300000000000000000000000000000000000000000000000000000000000000000000000000000000000000000000000000000000
#069371:0000000000230000
#0693b1:000000000000000000000000000000000000000000000000000000000000000000000000000000000000000000000000000000000000000000000000000000000000000000000000000000000000000000000000000000000000001300000000
#070371:0023000000000000
#069360:000000000000000000000000000000000000000000000000000000000000000000000000000000000000000000000000000000000000000000000000000000000000000000000000000000000000000000000000000000000000001300000000
#070320:0023000000000000
#071330:000000125200
#071320:00000024
#0713b1:000000125200
#0713a1:00000024
#015920:0000000000000013
#016950:23
#0319b0:00132300
#031980:0000005300000000
#035920:00132300
#035950:0000005300000000
#057950:00000013
#057920:0000000000000053
#058950:23
#061980:00000013
#0619b0:0000000000000053
#062980:23
