This file was generated by Ched 2.7.0.0.
#TITLE ""
#ARTIST ""
#DESIGNER ""
#DIFFICULTY 0
#PLAYLEVEL
#SONGID ""
#WAVE ""
#WAVEOFFSET 0
#JACKET ""
#REQUEST "ticks_per_beat 480"
#00002: 4
#BPM01: 134
#00008: 01
#TIL00: ""
#VOLUME: ""
#HISPEED 00
#MEASUREHS 00
#00212:00140000
#00312:14
#0031a:00140000
#0041a:14
#00412:00140000
#0061a:0014
#00610:41
#00716:14
#00712:0014
#0081a:1424
#00814:00140000
#00912:1424
#00918:00140000
#0101a:14
#01012:0014
#01116:14
#0111a:0014
#01212:1424
#01218:00140000
#0131a:1424
#01314:00140000
#01718:14
#02016:0014
#02218:00140000
#02214:0014
#0221a:00000014
#02212:24
#02210:41
#02312:14
#02318:00140000
#02314:0014
#0241a:14140000
#02412:00001414
#02518:14140000
#02614:00140000
#02618:0014
#02612:00000014
#0261a:14
#0271a:14
#02714:00140000
#02718:0014
#02812:14140000
#0281a:00001414
#02914:1424
#02918:00140000
#03014:00140000
#0301a:24001414
#03010:00000041
#03118:00140000
#03112:14001414
#03312:14
#03318:00140000
#03314:0014
#0331a:00000014
#0321a:14
#03214:00140000
#03218:00001414
#03418:00140000
#03412:14001414
#03514:00140000
#0351a:14001414
#04912:14
#04918:00140000
#04914:0014
#0491a:00000014
#04910:0041
#05012:14
#0501a:00001414
#05112:14140000
#05118:00001414
#05212:00000014
#05218:0014
#0531a:14
#05314:00140000
#05318:0014
#05312:00000014
#0541a:14
#05412:00001414
#0551a:14140000
#05514:0014
#05518:00000014
#05612:00000014
#0561a:0024
#05614:24
#05718:14140000
#0571a:00000014
#05712:0014
#05714:0014000000000000
#05814:14140000
#0581a:0014
#05812:00000014
#05818:0014000000000000
#05912:00001414
#05918:14140000
#05914:0014000000000000
#0601a:14140014
#06012:0014
#06114:14140000
#06118:0014000000000000
#06112:00000014
#0611a:0014
#06218:14140000
#06214:0014000000000000
#06212:0026
#06210:0041
#06614:00000014
#06618:000000000000003600000000000000000000000000000000000000000000000000000000000000000000000000000000000000000000000000000000000000000000000000000000000000000000000000000000000000000000000000000000
#06718:14140014
#06712:0014
#06814:14140014
#0681a:0014
#06918:14140000
#0401f:11
#0001a:24
#03612:26
#03718:26
#03812:26
#03918:260000000000000000000000000000000000003600000000000000000000000000000000360000000000000000000000000000000000003600000000000000000000000000000000000000000000000000000000000000000000000000000000
#04818:26000026
#04812:00260000
#0481f:00000021
#06318:0026
#06412:0026
#06518:000000000000000000000000000000000000000000000000000000000000000000000000000000000000000000000000260000000000000000000000000000000000003600000000000000000000000000000000360000000000000000000000
#07113:00000024
#07119:00000024
#07118:000000000000003400000000000000000000000000000000000000000000000000000000000000000000000000000000000000000000000000000000000000000000000000000000000000000000000000000000000000000000000000000000
#07112:000000000000003400000000000000000000000000000000000000000000000000000000000000000000000000000000000000000000000000000000000000000000000000000000000000000000000000000000000000000000000000000000
#0011a:000000000000000000000000000000000000003400000000000000000000000000000000000000000000000000000000000000000000003400000000000000000000000000000000000000000000000000000000000000000000000000000000
#01812:00343434
#01912:00343434
#07018:000000000000000000000000000000000000000000000000000000000000000000000000000000000000000000000000000000000000000000000000000000000000003400000000000000000000000000000000000000000000000000000000
#07012:000000000000000000000000000000000000000000000000000000000000000000000000000000000000000000000000000000000000000000000000000000000000003400000000000000000000000000000000000000000000000000000000
#01410:41
#0025a:14
#00652:14
#0105a:14
#01758:54
#0215a:0014
#02354:0014
#02554:00000014
#02758:0014
#03652:16
#03758:16
#03852:16
#04858:00000016
#05052:14
#05254:00140000
#0545a:14
#06252:0016
#06358:0016
#06452:0016
#0665a:0014
#07153:00000014
#07159:00000014
#0003a0:140000000000000000000000340000000000000000000000000000000000000000000000000000000000000000000000000000000000000000000000000000000000000000000000000000000000003400000000000000000000000000000000
#0013a0:340000000000000000000000000000000000003400000000000000000000000000000000000000000000000000000000000000000000003400000000000000000000000000000000340000000000000000000000000000000000000000000000
#001380:0000003400000000
#0023a0:24
#002380:00001424
#003340:00001424
#004380:00001424
#005340:14
#005320:0034
#006320:24
#014320:1424
#0153a0:1424
#016340:1424
#017380:14
#0173a0:0024
#018320:14343434
#019340:34
#019320:00343434
#020320:24
#0213a0:1424
#025340:00001424
#039380:16000000000000000000000000360000000000000000000036000000000000000000000000360000000000000000000000000000000000000000000000000000
#0393a0:00000034
#0403a0:34
#040380:0034
#041380:34
#0413a0:0024
#042320:14
#042340:0034
#043340:34
#043320:0024
#044380:14
#0443a0:0034
#0453a0:34
#045380:0024
#046340:14
#046320:0034
#047320:34
#047340:0024
#048380:00001626
#052340:14240000
#065380:00000000000000000000000000000000000000000000000000000000000000001600000000000000000000000036000000000000000000003600000000000000
#066380:00000000003600000000000000000000000000000000000000000000000000000000000000000000000000000000000000000000000000000000000000000000
#0663a0:00342400
#069380:0014
#0703a0:3434
#070380:000000000000000000000000000000000000000000000000000000000000000000000000000000000000000000000000000000000000000000000000000000000000003400000000000000000000000000000000340000000000000000000000
#071380:000000000000003400000000000000000000000000000000000000000000000000000000000000000000000000000000000000000000000000000000000000000000000000000000000000000000000000000000000000000000000000000000
#0713a0:00240000
#069321:0014
#070341:3434
#070321:000000000000000000000000000000000000000000000000000000000000000000000000000000000000000000000000000000000000000000000000000000000000003400000000000000000000000000000000340000000000000000000000
#071321:000000000000003400000000000000000000000000000000000000000000000000000000000000000000000000000000000000000000000000000000000000000000000000000000000000000000000000000000000000000000000000000000
#071341:00240000
#071331:00001424
#071390:00001424
