This file was generated by Ched 2.7.0.0.
#TITLE ""
#ARTIST ""
#DESIGNER ""
#DIFFICULTY 0
#PLAYLEVEL
#SONGID ""
#WAVE ""
#WAVEOFFSET 0
#JACKET ""
#REQUEST "ticks_per_beat 480"
#00002: 4
#BPM01: 100
#00008: 01
#TIL00: ""
#VOLUME: ""
#HISPEED 00
#MEASUREHS 00
#0051a:14
#0061a:14
#00712:14
#00812:14
#0091a:14
#00910:41
#01014:14
#01118:14
#01212:14
#0131a:14
#01414:14
#01518:14
#01510:41
#01612:14
#01718:2616
#01812:1616
#01918:16
#01912:0016
#02112:1616
#02218:1616
#02312:16
#02318:0016
#0251a:14
#0261a:14
#02610:41
#02714:14
#0271f:11
#02814:14
#02918:14
#03018:14
#03112:14
#03212:14
#03218:0014
#03318:0016
#03312:26
#0331f:21
#03310:0041
#03412:16
#03512:0016
#03618:16
#03612:0016
#03718:2616
#03812:1616
#03918:16
#03912:0016
#04018:16
#04012:0016
#04218:34
#04118:0034
#02010:41
#00410:41
#0013a0:14
#0023a0:24
#003320:14
#004320:24
#020380:1626
#024320:1626
#034380:0016
#035380:26
#0413a0:14
#041380:0034
#042380:3424
#043340:14
#044340:00240000
