This file was generated by Ched 2.7.0.0.
#TITLE ""
#ARTIST ""
#DESIGNER ""
#DIFFICULTY 0
#PLAYLEVEL
#SONGID ""
#WAVE ""
#WAVEOFFSET 0
#JACKET ""
#REQUEST "ticks_per_beat 480"
#00002: 4
#BPM01: 100
#00008: 01
#TIL00: ""
#VOLUME: ""
#HISPEED 00
#MEASUREHS 00
#00112:00130000
#00115:0000000013000013
#00118:0000000000130000
#0011b:00000013
#0021b:00130000
#00218:0000000013000013
#00215:0000000000130000
#00212:00000013
#00318:000000000000130000130000000000000000000013000000
#00315:000000000000000013000000000000000000130000130000
#0041b:1300000013130000
#00415:001300000000000000001300
#00412:000000000000130000000000000000130000000000000013
#00418:000000000000000013000000000000000000130000130000
#00410:41
#0051b:135300000000000000530000
#00512:000000135300000000000000
#00518:000000530000135300000000
#00515:000000000000530000135300
#0051a:000000005300000000000000000000000053000000000000
#00519:000000000053000000000000000000005300000000000000
#00513:000000000000000000005300000000000000000000000053
#00514:000000000000000000000053000000000000000000005300
#0061b:135300000000135300000000000000000000000000000000
#00612:530000135300000000135300000000000000000000000000
#00615:0000000000001313
#00618:000000000000000000000000130000530000000013000013
#0081b:13
#00817:00130000
#00819:0013000000000000
#00812:000000000000000000000026
#00818:000000000026
#00715:000000000000000000000013000053000000000000000053
#00718:000053000000000000000053000000000000000000000000
#0071b:000000000053530053000000000000000000000000000000
#00712:000000000000000000000000000000000053530053000000
#00713:0000000000000053
#00918:2600000013130013
#00915:000000000013000000000013000000000000000000000013
#0091b:00130000
#00917:0000000000000000000000130000000000000000000000000000000000000000
#00912:0000000000130000
#00910:41
#01015:000000130000000000000013000000130000000000000013
#01018:000000000013000000130000000000000000130000000000
#0101b:0000000000130000
#01012:00000013
#0111b:130000130000000000000000000000000023000000000000
#01115:000013000000000000000000000000000023000000000000
#01112:0000130013130000
#01118:000000000000130000000013000013000000000013000000
#01114:0000000000000024
#01218:000000140000000000000000240000000000000000000013
#01212:0014000024000013
#01214:1400001400000000
#01213:00140000
#0121a:2400001400240000
#01219:00140000
#01216:0000000000240000
#01512:000000000000000000000013000000000000000000130000
#01514:000000000000001300000000
#01516:000000000000000000000000000000000013000000000000
#01518:000000000000000000000000000000000000000000000013
#01519:2300000000230000
#0151b:00230023
#01517:0023
#01510:41
#01815:000013000000000000130000000000000000130000000000
#01812:00130000
#0181b:001300
#01818:000000000000000000000013000000000000000013000000
#01814:000000000000000000000000000000000000000000000024
#0181a:000000000000000000000000000000000000000000000024
#01915:000000000000130000000013000000000000000000130000
#01918:000024000000000013000000000000000013000000000013
#01912:000024000000000000130000000000000000130000000000
#0191b:000000000000000000000013000000000000000013000000
#0191a:000000000024000000000000000000000000000000000000
#02012:1314
#0201b:00130000
#02016:0000000000140014
#0201a:00000014
#02010:41
#02217:00130000
#02214:000000001300001300000000
#02219:0000001300130000
#02216:000000000000000000000013000000000000000000000000
#02212:000024000013000000000000000000000013000000000000
#0221a:002400000000000000000000
#0221b:0023
#0231b:0000130013130000
#02312:000000000000000013000013000000000000000000000000
#02318:003300000000000000130000000000000000000000000000
#02315:000000003300000000000000000013000013000000130000
#02319:003300000000000000000000
#02314:000000000033000000000000000000000000000000000000
#0241b:0000000013130000
#02412:1300000000130000
#02415:000000130000000000000000000000000000000000000013
#02418:0000001300000013
#03318:260000130000000000000000000000000013000000130013
#0331b:000000131300000000000000
#03315:000000000000000000130013000000130000000000000000
#03312:530000130000000000000000000000000000130013000000
#0331f:21
#03310:0041
#0351b:0000000013130000
#03516:000000000000001300000000
#03514:000000000000000000000000000000000013000000000013
#03517:0000130000000013
#03519:00000013
#03512:000000130000000000001300
#03619:13130000
#0361b:000000130000000000000013000000000000000000000000
#03616:001300000000000000000000
#03614:000000000013000000000000000000000000000000000000
#03617:0000001300000000
#03612:000000000000000013000013000000000000000000000000
#03615:000013
#03618:000013
#0371b:000023000013000000000000000013000000000000130000
#03715:0000131300130013
#03718:230000000000000013000013000000000013000000000000
#03712:23001313
#04118:000000000000000000000000000000000013000000130013
#0411a:14
#04115:000000000000130000131300
#0421b:0000001300001300
#04218:00131300
#04215:1300001300000000
#04212:0013
#0251b:1300000013000013
#02512:00130023
#02516:0000000013000023
#02517:00130000
#0271b:13001313
#02718:0013000000130013
#02712:0000001300000000
#02715:00130013
#0271f:11
#03816:000013000000000000000013000000130000000000000000
#03812:000000000013000000000000000000000000000000130000
#03819:000000000000000000130000000000000013000000000000
#03814:000000001300000000130000
#0381b:000000130000000000000000230013000000000000130000
#03817:00130000
#01315:0000000013130013
#01318:000000000000000000000013000000000000000000000013
#01312:26130000
#01316:0000000000000000000000130000000000000000000000000000000000000000
#0131b:0000130000130000
#01418:000000130000000000000013000000130000000000000000
#01415:000000000013000000130000000000000000130000000000
#01412:0000000000130000
#0141b:00000013
#01616:0012
#01615:13
#01618:00130000
#01718:260000000013000013000000000000000013000000000000
#01712:000026000000130000130000000000000000130000000000
#0171b:000000000000000000000013000013000000000000130000
#01715:0000000013130013
#02115:000000000013000013000000000000000013000000000000
#0211b:0000131300001300
#02112:160000000000000000000013000013000000000000130000
#02118:000026000000000000000000130000130000000000130000
#0261b:1300001313000000
#02612:23232313
#02616:0000002300000000
#02610:41
#02812:1300000013000013
#0281b:00130023
#02817:0000000013000023
#02816:00130000
#02912:1300001313000000
#0291b:23232313
#02917:0000002300000000
#03012:13001313
#03015:0013000000130013
#0301b:0000001300000000
#03018:00130013
#0311b:1300000013000013
#03112:00130023
#03116:0000000013000023
#03117:00130000
#0341b:0013000000000000
#03412:0000001300000000
#03415:000000000000000000000000130000130013000000000000
#03418:000000000000000000000000000013000013000000000000
#0401a:240000140000000000000000000000000000140014000000
#04012:000000000000000000140000000000240000000000140014
#04017:000000000000240000140000000000240000000000001300
#04016:000000000000000000000000000000000000001300000000
#04015:2414000024000000
#0321b:230053530000000000000000000000000053530000000000
#03212:230000000000230053530000000000000000000000000053
#03218:000000000053530000000000230053530000000000000000
#03215:000000000000000000000053530000000000230053530000
#0391b:00000023
#03915:000000000023
#03918:2300000000000023
#03914:000000000000003300000000000000000000000000000000
#04412:00520000
#00857:0000000000130000
#00852:0000000000130000
#00958:16
#0095b:00630000
#00957:0000000000000000000000230000000000000000000000000000000000000000
#01758:16
#01752:00000023
#0175b:0000000000000053
#01755:0000000000000053
#03358:16
#03652:000000000000000000000063000000000000000000000000
#0365b:000000000000000000000063000000000000000000000000
#03655:000023
#03658:000023
#03752:13000023
#03755:0000000000000053
#0375b:0000000000000053
#0255b:6363
#02557:00630000
#0105b:0000000000630000
#01058:00000023
#01055:0000000000630000
#01052:00000023
#0195b:000000000000000000000063000000000000000000000000
#01958:000000000000001300000000
#01955:000000000000000000000063000000000000000000000000
#01952:000000000000001300000000
#02052:6364
#02056:0000000000240024
#0205b:00630000
#0205a:00000054
#02758:0023000000230023
#0275b:53005353
#02752:0000002300000000
#02755:00530000
#01352:16530000
#01356:0000000000000000000000230000000000000000000000000000000000000000
#01452:0000000000530000
#01455:00000023
#01458:0000000000530000
#0145b:00000023
#01656:0022
#01655:53
#01658:00630000
#0215b:00000023
#02152:1600000000000063
#02158:0000000000000063
#02452:1313
#0245b:0000130000130000
#0265b:6363
#02652:00000053
#02952:5353
#0295b:00000063
#02852:5353
#02856:00530000
#03052:63006363
#03055:0023000000230023
#0305b:0000002300000000
#03058:00630000
#0315b:6363
#03157:00630000
#03552:13630000
#0355b:13
#0405a:1414
#04052:0000140000140000
#04057:0000005400000000
#04055:0054000000000000
#0415a:54
#0425b:00000023
#04252:0023
#04255:23
#03458:000000000000000000000000000000000053000000000000
#03455:000000000000000000000000000000000063000000000000
#01254:5400002400000000
#01253:00540000
#01252:0024000000000000
#0125a:5400002400240000
#01259:00540000
#01258:0024000000000000
#0013b0:1323
#002320:1323
#0033b0:133333230000000000000000000000000000000000000000
#003321:000000133333230000000000000000000000000000000000
#003321:000000000000000000000000130033230000000000000000
#0033b0:000000000000000000000000000000130033230000000000
#004380:000000130033230000000000000000000000000000000000
#004350:000000000000000000130033230000000000000000000000
#008320:000000000000000013000000000000230000000000000000
#008371:000000000000000000000013000000230000000000000000
#0093b1:000000000000130000000023000000000000000000000000
#009371:0000000000000000000000530000000000000000000000000000000000000000
#0103b1:1323000000000000
#010321:0000132300000000
#0103b1:0000000013330023
#010381:00000053
#010350:0000000000130023
#010320:00000053
#011340:000000000000000000000000000000000000000000140034
#012340:3400005400000000
#012320:000000540000000000000024000000000000000000000000
#012330:00340000
#0123a1:1400005400000000
#012381:000000540000000000000024000000000000000000000000
#012391:00340000
#0123a1:0000000000140000
#012361:0000000000000024
#013321:000000000000130000000023000000000000000000000000
#013361:0000000000000000000000530000000000000000000000000000000000000000
#014321:1323000000000000
#0143b1:0000132300000000
#014321:0000000013330023
#014351:00000053
#014380:0000000000130023
#0143b0:00000053
#015390:13
#015370:0023000000000000
#015341:1323000000000000
#015361:0000132300000000
#0153b0:00130000
#015390:0000002300000000
#016350:13
#016360:00220000
#016381:00132200
#016360:0012
#017320:26
#017320:00000013
#017350:0000000000000033
#018320:23
#0173b1:0000000000000013
#018381:23
#018381:0013230000000000
#018321:0013
#018351:000000000000000000000000000033230000000000000000
#0183b0:0000000000130000
#018380:000000000000000000000000000000000033230000000000
#0193b0:000000000000000000000013000000000000000000000000
#019380:000000000000002300000000
#019351:000000000000000000000013000000000000000000000000
#019321:000000000000002300000000
#020321:13
#020361:00230000
#0203b0:00130000
#020370:0023
#020321:00001424
#020361:0000000000540000
#0203a0:00000014
#020360:0000000000000054
#0213a0:24
#0213b0:00000013
#021380:0000000000000033
#0223b0:23
#021321:0000000000000013
#022351:23
#022371:0000000000001323
#022340:0000000000000013
#023340:23
#023371:13
#023381:003300000000000000000000000000000000000000000000
#023391:003300000000000000000000
#0233b1:0023000000000000
#023360:0013000000000000
#023350:003300000000
#023340:000000000033000000000000000000000000000000000000
#023320:00230000
#0233b0:00000013
#0233a0:000000000000000000000000000000000000003300000000
#023390:000000000033
#023380:0000000000000023
#024380:130033330000000000000000000000000000000000000000
#0243b0:000000000033230000000000000000000000000000000000
#024351:000000000000130033330000000000000000000000000000
#024321:000000000000000000000033230000000000000000000000
#024351:00000013
#024341:000000000000000000000000000000000000003300000000
#024331:000000000033
#024321:0000000000000023
#0253b1:1333
#025371:00330023
#0263b1:13
#026371:00230000
#0263b1:0013
#026371:00000023
#026320:00000013
#027360:23
#0273b1:13230000
#027381:0053000000000000
#027350:00132300
#027320:0000005300000000
#0273b1:00001333
#027381:0000000000530053
#0283b1:23
#028320:1333
#028360:00330023
#029320:13
#029360:00230000
#029320:0013
#029360:00000023
#0293b1:00000013
#030371:23
#030320:13230000
#030350:0053000000000000
#030381:00132300
#0303b1:0000005300000000
#030320:00001333
#030350:0000000000530053
#031320:23
#0313b1:1333
#031371:00330023
#033381:0000000013230000
#034351:130000000033230000000000000000000000000000000000
#034321:000033330000000000000000000000000000000000000000
#034380:000000000000130000000033230000000000000000000000
#0343b0:000000000000000033330000000000000000000000000000
#034380:000000000000000000000000000000000013000000000000
#0353b0:23
#034351:000000000000000000000000000000000013000000000000
#035321:23
#035321:00130000
#035361:0023
#036321:000000000000000000000013000000000000000000230000
#036351:000053
#0363b0:000000000000000000000013000000000000000000230000
#036380:000053
#037320:00000013
#037350:0000000000000033
#038320:23
#0373b1:0000000000000013
#038381:23
#039351:13
#039341:003300000000000000000000000000000000000000000000
#039331:003300000000000000000000
#039321:0023000000000000
#039380:0013000000000000
#039390:003300000000
#0393a0:000000000033000000000000000000000000000000000000
#0393b0:00230000
#039321:00130000
#039341:000000000000003300000000000000000000000000000000
#039351:000033230000
#0393b0:0013
#0393a0:000000000000000000000000003300000000000000000000
#039390:000000000000003300000000
#039380:0000000000230000
#039321:0000000000130000
#039351:000000000000000000000000000000000033230000000000
#040351:140034340000000000000000000000000000000000000000
#040321:000000000034240000000000000000000000000000000000
#040370:000000000000140034340000000000000000000000000000
#0403a0:000000000000000000000034240000000000000000000000
#0413a0:14
#041380:0023
#042350:13
#042320:00230000
#042320:0013
#042350:00000023
#0423b1:00000013
#043381:23
#043320:16
#044320:00220000
#0059b0:135300000000000000000000
#0059a0:005300000000
#005980:00230000
#005921:000000135300000000000000
#005931:000000000053000000000000
#005951:0023
#005980:000000000000135300000000
#005990:000053
#0059b0:00000023
#005951:000000000000000000135300
#005941:000000000000000000000053
#006921:23
#0069b0:132300000000000000000000000000000000000000000000
#006920:000000132300000000000000000000000000000000000000
#0069b0:000000000000132300000000000000000000000000000000
#006920:000000000000000000132300000000000000000000000000
#006980:0000000013230000
#006980:000000000000000000000000000000000000000000000013
#007980:000053000000000000000023000000000000000000000000
#0079b0:000000000053000053000000000000000000000000000000
#007951:000000000000000000000013000053000000000000000023
#007921:000000000000000000000000000000000053530053000000
#0329b1:130053530000000000000000000000000000000000000000
#032981:000000000053230000000000000000000000000000000000
#032920:000000000000130053530000000000000000000000000000
#032950:000000000000000000000053230000000000000000000000
#032981:0000000013530000
#0329b1:000000000000000000000000000000000053230000000000
#032950:0000000000001353
#032920:000000000000000000000000000000000000000000000053
#033920:23
