This file was generated by Ched 2.7.0.0.
#TITLE ""
#ARTIST ""
#DESIGNER ""
#DIFFICULTY 0
#PLAYLEVEL
#SONGID ""
#WAVE ""
#WAVEOFFSET 0
#JACKET ""
#REQUEST "ticks_per_beat 480"
#00002: 4
#BPM01: 100
#00008: 01
#TIL00: ""
#VOLUME: ""
#HISPEED 00
#MEASUREHS 00
#00612:000000000000005200000000000000000000120000000000
#00616:120000000012
#00618:0012000000000012
#00617:000000000000000000000000120000000000000000000012
#00614:005200000000120000000000000000000000000000000000
#0061a:520000005200000000120000000000000000000000000000
#0061c:000000000000000000005200000000000000000000000022
#00615:0000000000560000
#0091b:000000000000000013000000130000130000000000000000
#00918:000000000000000000000000000000000000000000000013
#00916:000000000000000000000000000000000013000000000000130000000000130000000000000000000000000000000000
#00917:000000000013000000000000000000000000000000000000
#00912:2400130000000013
#0091a:24
#00910:41
#01017:000000000000000000000000000000000000000000000000000000000000000000000000000000000000000000000000000000000000000000000000000000000000000000000000000000000000000000000000000000000000000000000000000000000000000000000000000000000000000000000000000000000000000000000000000000000000000000000000000000000000000000000000000000000000000000000000000000000000000000000000000000000000000000000000000000000000000000000000000000000000000000000000000000000000000000000000000000000000000000000000130000000000000000000000000000000000000000000000000000000000000000000000000000000000000000000000000000000000000000000000000000000000000000000000000000000000000000000000000000000000000000000000000000000000000000000000000000000000000000000000000000000000000000000000000000000000000000000000000000000000000000000000000000000000000000000000000000000000000000000000000000000000000000000000000000000000000000000000000000000000000000000000000000000000000000000000000000000000000000000000130000000000000000000000000000000000000000000000000000000000000000000000000000000000000000000000000000000000000000000000000000000000000000000000000000000000000000000000000000000000000000000000000000000000000000000000000000000000000000000000000000000000000000000000000000000000000000000000000000000000000000000000000000000000000000000000000000000000000000000000000000000000000000000000000000000000000000000000000000000000000000000000000000000000000000000000000000000000000000000000000000000000000000000000000000000000000000000000000000000000000000000000000000000000000000000000000000000000000000000000000000000000000000000000000000000000000000000000000000000000000000000000000000000000000000000000000000000000000000000000000000000000000000000000000000000000000000000000000000000000000000000000000000000000000000000000000000000000000000000000000000000000000000000000000000000000000000000000000000000000000000000000000000000000000000000000000000000000000000000000000000000000000000000000000000000000000000000000000000000000000000000000000000000000000000000000000000000000000000000000000000000000000000000000000000000000000000000000000000000000000000000000000000000000000000000000000000000000000000000000000000000000000000000000000000000000000000000000000000000000000000000000000000000000000000000000000000000000000000000000000000000000000000000000000000000000000000000000000000000000000000000000000000000000000000000000000000000000000000000000000000000000000000000000000000000000000000000000000000000000000000000000000000000000000000000000000000000000000000000000000000000000000000000000000000000000000000000000000000000000000000000000000000000000000000000000000000000000000000000000000000000000000000000000000000000000000000000000000000000000000000000000000000000000000000000000000000000000000000000000000000000000000000000000000000000000000000000000000000000000000000000000000000000000000000000000000000000000000000000000000000000000000000000000000000000000000000000000000000000000000000000000000000000000000000000000000000000000000000000000000000000000000000000000000000000000000000000000000000000000000000000000000000000000000000000000000000000000000000000000000000000000000000000000000000000000000000000000000000000000000000000000000000000000000000000000000000000000000000000000000000000000000000000000000000000000000000000000000000000000000000000000000000000000000000000000000000000000000000000072520000000000000000000000000000000000000000000000000000000000000000000000000000000000000000000000000000000000000000000000000000000000000000000000000000000000000000000000000000000000000000000000000000000000000000000000000000000000000000000000000000000000000000000000000000000000000000000000000000000000000000000000000000000000000000000000000000000000000000000000000000000000000000000000000000000000000000000000000000000000000000000000000000000000000000000000000000000000000000000000
#01015:000000000013000000000000000000000000000000000000
#01012:000000000000130000000000130000130000000000000013
#01016:1300001300000000
#0101b:1300000013130000
#01018:000000000000000000000013000000000000000000000000
#01117:130000000000000000000000000000000000000000000013
#0111b:001300130000000000001300
#01116:0013000000000013
#01112:000000000000130000000000000000000025000000000000
#01115:000000000000000000000013000013000000000000000000
#01118:0000000013130000
#01119:000000000000000000000000000000000025000000000000
#01512:000000130000000000000013000000000013000000130000
#01516:000000000000000000000000000000240000000000000013
#0151b:000000000000000000130000000013000000000000130000
#01517:22222200
#01515:00000026
#01510:41
#01712:240000000014000000000000000000000000000000000000
#01714:001400
#01718:000000000000001400120000
#01716:000024000000000000000014000000000014000000140000
#0171c:0000000000000012
#0171a:24
#01912:000000000014000000000000000015000000000014000000
#01916:000000000024000012000000140000000000000000000000
#0191c:0000001200000000
#01918:000000000000000000000013000000000000000000000000
#0191a:000000000000120000000000000000000014000000000014
#01917:0000000000001212
#01919:001500000000000000000000
#01914:002500000000000000000000
#01915:000000000000000000000023000000000000000000000000
#02017:1212000000000000
#02012:0012001200001300
#0201c:00120000
#02013:000000000000000000000013000000000000000000000000
#0201b:0000000000130013
#02016:0000000013130000
#02010:41
#0221c:00120000
#02218:000000000000000012000012000000000012000000000000
#02212:0000001224000000
#02216:000024000012000000000000000012000000000000000000
#02214:00000012
#0221a:0000000024120014
#0231a:001400140000000014000014000000140000000014000000
#02312:140000001400000000000000140000000000001400000000
#02316:000014000014000000000000000000140000140000140000
#03716:000024000014000000140014000000140014000000000000
#03718:260000161600000000000000
#03712:240000140000161600140000
#03717:0000000000000014
#0371b:0000000000000013
#0371a:00000014
#01613:00130000
#0161a:130000000000000000000000130033330033000033330000
#01616:0000003300001200
#01614:00000012
#01612:0013000000000000
#0161b:0000001300000000
#01617:000000000033000000000033000000000000000000000000
#01618:0033000000000000
#01615:003300
#03812:001400140000241400140000
#03816:000000150000000000000016000000000000000000000000
#03815:000000000015000000160000000000180000000000000000
#0381a:000000141400240000000000
#03813:000000000000000000000000000000000018000000000000
#0081b:000000000000130000000013000000000000000000000000
#00812:130000000000000000000000005300000000000000001300000000000000000000000000000000000000000000000000
#00817:0013000000000000
#00816:000000000000000000000053000000000000000000000000000000001200000000000000000000000000000000000000
#00818:000000000000001200002400
#00814:000000530000000000002400
#00819:000000000000000000000024
#00813:000000000000000000000024
#01218:000000000000000000000000260000261600000000000016
#01216:000000000000000000000000140000000000000000000000000000000000000000000000000000000000000000000000000000000000000000000000000018000000001800180000180000000000000000000000000000000000000000000000
#01215:000000000000000000000000000000000000000000000000000000000000000000001500000000000000000000000000000000000000000000000000000000000000190000000019001900001900000000000000000000000000000000000000
#01217:000000000000000000000000000000000000000000000000000000000000000000000000000000000000000000000000000000000000000000000000001700170017000017000000000000000000000000000000000000000000000000000000
#01214:000000000000000000000000000000000000000000000000000000000000000000000000000000000000000000000000000000000000000000000000000000000000000000001a000000001a001a000000000000000000000000000000000000
#01213:000000000000000000000000000000000000000000000000000000000000000000000000001b00000000000000000000
#01212:23000000000000000000000000000000000000000000000000000000000000000000000000000000000000000000000000000000000000000000000000000000000000000000000000000000000000000000000000000000000000000000000000000000000000000000000000000000000000000000000000000000000000000000000000000000000000000000000000000000000000000000000000000000000000000000000000000000000000000000000000000000000000000000000000000000000000000000000000000000000000000000000000000000000000000000000000000000000000000000000000000000000000000000000000000000000000000000000000000000000000000000000000000000000000000000000000000000000000000000000000000000000000000000000000000000000000000000000000000000000000000000000000000000000000000000000000000000000000000000000000000000000000000000000000000000000000000000000000000000000000000000000000000000000000000000000000000000000000000000000000000000000000000000000000000000000000000000000000000000000000000000000000000000000000000000000000000000000000000000000000000000000000000000000000000000000000000000000000000000000000000000000000000000000000000000000000000000000000000000000000000000000000000000000000000000000000000000000000000000000000000000000000000000000000000000000000000000000000000000000000000000000000000000000000000000000000000000000000000000000000000000000000000000000000000000000000000000000000000000000000000000000000000000000000000000000000000000000000000000000000000000000000000000000000000000000000000000000000000000000000000000000000000000000000000000000000000000000000000000000000000000000000000000000000000000000000000000000000000000000000000000000000000000000000000000000000000000000000000000000000000000000000000000000000000000000000000000000000000000000000000000000000000000000000000000000000000000000000000000000000000000000000000000260000000000000000000000000000000000000000000000000000000000000000000000000000000000000000000000000000000000000000000000000000000000000000000000000000000000000000000000000000000000000000000000000000000000000000000000000000000000000000000000000000000000000000000000000000000000000000000000000000000000000000000000000000000000000000000000000000000000000000000000000000000000000000000000000000000000000000000000000000000000000000000000000000000000000000000000000000000000000000000000000000000000000000000000000000000000000000000000000000000000000000000000000000000000000000000000000000000000000000000000000000000000000000000000000000000000000000000000000000000000000000000000000000000000000000000000000000000000000000000000000000000000000000000000000000000000000000000000000000000000000000000000000000000000000000000000000000000000000000000000000000000000000000000000000000000000000000000000000000000000000000000000000000000000000000000000000000000000000000000000000000000000000000000000000000000000000000000000000000000000000000000000000000000000000000000000000000000000000000000000000000000000000000000000000000000000000000000000000000000000000000000000000000000000000000000000000000000000000000000000000000000000000000000000000000000000000000000000000000000000000000000000000000000000000000000000000000000000000000000000000000000000000000000000000000000000000000000000000000000000000000000000000000000000000000000000000000000000000000000000000000000000000000000000000000000000000000000000000000000000000000000000000000000000000000000000000000000000000000000000000000000000000000000000000000000000007c6c0000000000000000000000000000000000000000000000000000000000000000000000000000000000000000000000000000000000000000000000000000000000000000000000000000000000000000000000000000000000000000000000000000000000000000000000000000000000000000000000000000000000000000000000000000000000000000000000000000000000000000000000000000000000000000000000000000000000000000000000000000000000000000000000000000000000000000000000000000000000000000000000000000000000000000000000000000000000000000000000
#0121a:00240000
#01416:0013130000001200
#01412:1300000013130000
#01418:000000000013000000000000000000000000120000000000
#0141b:0000130013130000
#01417:1300001300000000
#01415:000000000000000000000013000000000000000000000000
#0211a:140000000014000000000000000000000000000000000000
#02118:001400
#02114:000000000000001400000000
#02116:000024000000000000000014000000000014120000140000
#02112:1400000000000012
#03916:001414000000000000000000000000000000000000000000
#03912:00000014000000000000000026000000001400002c2c0000
#03915:000000001616000000000000000000000000000000000000
#03914:000000000000001818000000000000000000000000000000
#03913:000000000000000000000000001a1a000000000000000000
#0391a:2400140000140000
#03918:00000016
#0031a:003212000052
#00314:003200000000000000120000000000000000000052000000
#00316:003200120000000000520000
#00318:000000000000000000000012000000000000520000000000
#0031c:000000000032000000000000000000120000000000000000
#00312:0012
#00315:000000000000000000000000000000000000005200000000
#00313:0000000000000052
#00319:000000000000000000000000000000000000005200000000
#0031b:0000000000000052
#00418:001200000000000000001200
#00417:000000000000000012000012000000000000000000000000
#00416:000000000012000000000000000000000000000000120000
#0041a:000000000000000000000000000000000000120000000012
#00419:12
#00413:0012000000000000
#0041b:00120000
#00412:0000001200000000
#00414:000000000000000000000000000000000000001200000000
#00415:12
#00410:41
#00716:000000000000000000000012000000000000000012000000
#00712:00000012
#00713:00120000
#0071c:0000000000000012
#00718:000000000012000012000000000000000000000000000012
#00715:001200000000000000000000
#00714:000000000000001200000000
#00717:000000000000000000000000000000000012000000000000
#0071b:000000000000000000000022000000000000000000000000
#00719:000000000000002200000000
#0071a:002200000000000000000000
#02418:160000000000000000000000000000000000001300000016
#02415:000014000000000000140000000000000000000013000000
#02412:1300000000001600000000131c00001c0000000000130000
#0241b:000000000013000000000000000000000000130000000000
#02417:000000140000000014000000000000000000000000000000
#04017:270000000000170000001400000000001700000000000000270000150000000000000000000000000000000015000000
#04012:240017000000270000170000240000000000140014000000
#04015:000000000000000000000014000000000000000000000000
#04014:000000000000000000000000000000000000000000000000000000000000000000150000000015000000000000000000
#0401a:000000000000240000000000000000240000000000140014
#00114:1200001200000000
#00118:000012000012000000000000000000000000000000120000
#00112:00120000
#0011a:001200
#0011c:000000000000000000000012000000000000000000000000
#00116:00000012
#00113:0000000000000012
#0021a:1200001200000000
#00216:000012000012000000000000000000000000000000120000
#0021c:00120000
#00214:001200
#00212:000000000000000000000012000000000000000000000000
#00218:00000012
#0021b:0000000000000012
#00514:00120012
#00512:0012
#0051c:000012005252520000000000000000000000000000000000
#0051a:000000000000000012005252520000000000000012005252
#00518:000000000000000000000000000012005252520000000000
#00516:24
#01312:260000000000000000000000000000000013000000000000130000000000130000000000000000000000000000000000
#01315:000000000000000000000000000000000000000000000013
#01317:000000000000000000000000000000000013000000000000130000000000130000000000000000000000000000000000
#0131b:0000130000000013
#01316:00130000
#01818:000014000000000000000000000000000000120000000026
#01817:000000000014000000000000000000000000000000000000
#01816:000000001400000000001414
#01812:000000000014
#01815:000000120000000000000014000000000000000000000000
#01814:000000000000001400000000
#01819:0000000000120000
#0181a:0012
#01813:000000000000000000120000000000000014000000000000
#0181c:00120000
#03214:000000000013000000000000530000000000000000000013
#03217:000000270000001300270000
#03219:000013000000000000000000000000530000000013000000
#03216:000000000000000000000013000000000000000000000000
#03218:000013260000
#03215:290000000000000000000000000000000013000000000000
#03212:0028532700260027
#0321b:0053000000000053
#0321a:0000005300000000
#03213:00000053
#04212:0000000012000012
#0421c:0000001200001200
#04218:00121200
#04216:120000000000000000120000000000000000000000000052
#04214:000000000000000000000052
#04118:0000000000000012
#04116:00000012
#0411a:000000000000000000000000000000000012000000000012
#04114:000000000012
#04112:2252
#03312:530000141400140000000000
#03316:280000140000000000140014000000000000140014000000
#0331a:0014000000140000
#03319:000000000000000000000000000000000015000000150015
#0331f:21
#03310:0041
#03416:140000000000140000000000140000001400000000000000140000001400000000000000000000000014000000000000
#03417:000000000000000000000000000000170017000000000000
#03412:000000000016000000160016000000000000140000000000
#02912:006400000000130000000000006400000000230000000000006400000000130000000000130000000000000000000000
#0291b:1313
#02917:0013000000130000
#02916:2400242424000000
#02914:006400000000000000000000000000000000000000000000006400000000000000000000000000000000000000000000006400000000000000000000000000000000000000000000000000000000000000000000000000000000000000000000
#02918:000000000000000000000000000000000000000000000000000000000000000000000000006400000000000000000000000000000000000000000000000000000000000000000000000000000000000000000000000000000000000000000000
#0291a:000000000000000000000000000000000000006400000000000000000000000000000000000000000000000000000000
#02616:0013000000130000
#02612:1313
#0261b:0000002300001300
#02617:2300232323000000
#02610:41
#02619:006300000000000000000000000000000000000000000000006300000000000000000000000000000000000000000000006300000000000000000000000000000000000000000000000000000000000000000000000000000000000000000000
#02615:000000000000000000000000000000000000000000000000000000000000000000000000006300000000000000000000000000000000000000000000000000000000000000000000000000000000000000000000000000000000000000000000
#02516:0000000000130000
#02512:26131300
#0251b:0000001300000023
#02517:0000130000002323
#02515:000000000000000000000000000000000000000000000000000000000000000000000000000000000000000000000000000000000000000000000000000000000000000000000000000000000000000000000000006300000000000000000000
#02519:000000000000000000000000000000000000000000000000000000000000000000000000000000000000000000000000000000000000000000000000000000000000000000000000006300000000000000000000000000000000000000000000
#03519:000000000000000000000000150000000015000000000000
#0351a:000000000000140000000000000000000000000000000014
#03515:000000000000000000000000000000150000000015000000
#03512:000000000000000000000000000014000000140000140000
#03612:160000000016000000000014000000140000260000000000
#03616:000000160000000016000000000000000000000000000000
#0361a:000014000000140000140000140000140000000000000000
#03618:00000026
#02716:00141414
#02712:2600000000120012
#0271c:0012001200000000
#0271f:11
#02816:140000000000000000000000000000000000000000000000000000000000000000000000000000000000000000000000000000000000000000000000000000000000000000000000000000000000000000000000000000000000000000000000000000000000000000000000000000000000000000000000000000000000000000000000000000000000000000000000000000000000000000000000000000000000000000000000000000000000000000000000000000000000000000000000000000000000000000000000000000000000000000000000000000000000000000000000000000000000000000000000000000000000000000000000000000000000000000000000000000000000000000000000000000000000000000000000000000000000000000000000000000000000000000000000000000000000000000000000000000000000000000000000000000000000000000000000000000000000000000000000000000000000000000000000000000000000000000000000000000000000000000000000000000000000000000000000000000000000000000000000000000000000000000000000000000000000000000000000000000000000000000000000000000000000000000000000000000000000000000000000140000000000000000000000000000000000000000000000000000000000000000000000000000000000000000000000000000000000000000000000000000000000000000000000000000000000000000000000000000000000000000000000000000000000000000000000000000000000000000000000000000000000000000000000000000000000000000000000000000000000000000000000000000000000000000000000000000000000000000000000000000000000000000000000000000000000000000000000000000000000000000000000000000000000000000000000000000000000000000000000000000000000000000000000000000000000000000000000000000000000000000000000000000000000000000000000000000000000000000000000000000000000000000000000000000000000000000000000000000000000000000000000000000000000000000000000000000000000000000000000000000000000000000000000000000000000000000000000000000000000000000000000000000000000000000000000000000000000000000000000000000000000000000000000000000000000000000000000000000000000000000000000000000000000000000000000000000000000000000000000140000000000000000000000000000000000000000000000000000000000000000000000000000000000000000000000000000000000000000000000000000000000000000000000000000000000000000000000000000000000000000000000000000000000000000000000000000000000000000000000000000000000000000000000000000000000000000000000000000000000000000000000000000000000000000000000000000000000000000000000000000000000000000000000000000000000000000000000000000000000000000000000000000000000000000000000000000000000000000000000000000000000000000000000000000000000000000000000000000000000000000000000000000000000000000000000000000000000000000000000000000000000000000000000000000000000000000000000000000000000000000000000000000000000000000000000000000000000000000000000000000000000000000000000000000000000000000000000000000000000000000000000000000000000000000000000000000000000000000000000000000000000000000000000000000000000000000000000000000000000000000000000000000000000000000000000000000000000000000000074640000000000000000000000000000000000000000000000000000000000000000000000000000000000000000000000000000000000000000000000000000000000000000000000000000000000000000000000000000000000000000000000000000000000000000000000000000000000000000000000000000000000000000000000000000000000000000000000000000000000000000000000000000000000000000000000000000000000000000000000000000000000000000000000000000000000000000000000000000000000000000000000000000000000000000000000000000000000000000000000240000000000000000000000000000000000000000000000000000000000000000000000000000000000000000000000000000000000000000000000000000000000000000000000000000000000000000000000000000000000000000000000000000000000000000000000000000000000000000000000000000000000000000000000000000000000000000000000000000000000000000000000000000000000000000000000000000000000000000000000000000000000000000000000000000000000000000000000000000000000000000000000000000000000000000000000000000000000000000000000
#02812:000000000000000000000000000000000000120000000000000000000000000000000000006400000000000000000000
#0281c:0012000000120000
#02818:000000000000000000000000000000000000000000000000000000000000000000000000000000000000000000000000000000000000000000000000000000000000000000000000000000000000000000000000006400000000000000000000
#02814:000000000000000000000000000000000000000000000000000000000000000000000000000000000000000000000000000000000000000000000000000000000000000000000000006400000000000000000000000000000000000000000000
#0281a:000000000000000000000000000000000000000000000000000000000000000000000000000000000000006400000000
#03016:00141414
#0301c:0000000000120012
#03012:0012001200000000
#03018:26
#03116:140000000000000000000000000000000000000000000000000000000000000000000000000000000000000000000000000000000000000000000000000000000000000000000000000000000000000000000000000000000000000000000000000000000000000000000000000000000000000000000000000000000000000000000000000000000000000000000000000000000000000000000000000000000000000000000000000000000000000000000000000000000000000000000000000000000000000000000000000000000000000000000000000000000000000000000000000000000000000000000000000000000000000000000000000000000000000000000000000000000000000000000000000000000000000000000000000000000000000000000000000000000000000000000000000000000000000000000000000000000000000000000000000000000000000000000000000000000000000000000000000000000000000000000000000000000000000000000000000000000000000000000000000000000000000000000000000000000000000000000000000000000000000000000000000000000000000000000000000000000000000000000000000000000000000000000000000000000000000000000000140000000000000000000000000000000000000000000000000000000000000000000000000000000000000000000000000000000000000000000000000000000000000000000000000000000000000000000000000000000000000000000000000000000000000000000000000000000000000000000000000000000000000000000000000000000000000000000000000000000000000000000000000000000000000000000000000000000000000000000000000000000000000000000000000000000000000000000000000000000000000000000000000000000000000000000000000000000000000000000000000000000000000000000000000000000000000000000000000000000000000000000000000000000000000000000000000000000000000000000000000000000000000000000000000000000000000000000000000000000000000000000000000000000000000000000000000000000000000000000000000000000000000000000000000000000000000000000000000000000000000000000000000000000000000000000000000000000000000000000000000000000000000000000000000000000000000000000000000000000000000000000000000000000000000000000000000000000000000000000000140000000000000000000000000000000000000000000000000000000000000000000000000000000000000000000000000000000000000000000000000000000000000000000000000000000000000000000000000000000000000000000000000000000000000000000000000000000000000000000000000000000000000000000000000000000000000000000000000000000000000000000000000000000000000000000000000000000000000000000000000000000000000000000000000000000000000000000000000000000000000000000000000000000000000000000000000000000000000000000000000000000000000000000000000000000000000000000000000000000000000000000000000000000000000000000000000000000000000000000000000000000000000000000000000000000000000000000000000000000000000000000000000000000000000000000000000000000000000000000000000000000000000000000000000000000000000000000000000000000000000000000000000000000000000000000000000000000000000000000000000000000000000000000000000000000000000000000000000000000000000000000000000000000000000000000000000000000000000000000074640000000000000000000000000000000000000000000000000000000000000000000000000000000000000000000000000000000000000000000000000000000000000000000000000000000000000000000000000000000000000000000000000000000000000000000000000000000000000000000000000000000000000000000000000000000000000000000000000000000000000000000000000000000000000000000000000000000000000000000000000000000000000000000000000000000000000000000000000000000000000000000000000000000000000000000000000000000000000000000000240000000000000000000000000000000000000000000000000000000000000000000000000000000000000000000000000000000000000000000000000000000000000000000000000000000000000000000000000000000000000000000000000000000000000000000000000000000000000000000000000000000000000000000000000000000000000000000000000000000000000000000000000000000000000000000000000000000000000000000000000000000000000000000000000000000000000000000000000000000000000000000000000000000000000000000000000000000000000000000000
#0311c:0000001200000000
#03112:000000000000120000000000000000000000000000000000000000000000120000000000000000000000006400000000
#03114:000000000000000000000000000000000000000000000000000000000000000000000000000000000000000000000000000000000000000000000000000000000000000000000000000000000000000000000000006400000000000000000000
#0311a:000000000000000000000000000000000000000000000000000000000000000000000000006400000000000000000000
#03118:000000000000000000000000000000000000000000000000000000000000000000000000000000000000000000000000000000000000000000000000000000000000000000000000006400000000000000000000000000000000000000000000
#04416:00520000
#01057:00630000
#01056:53
#01052:0000000000630000
#0105b:0000000000530000
#02057:62
#0205c:00620000
#02052:0022000000005300
#02056:0053
#0205b:0000000000230000
#03752:00340024
#03757:0000000000000024
#0375b:0000000000000023
#0375a:00000044
#00556:14
#0085b:000000000000000000000053000000000000000000000000
#00852:000000000000000000000063000000000000000000000000
#00853:0000000000150000
#00858:000000000000000000000000000022150000000000000000
#00856:000000000000002200000000
#0095a:44
#00957:000000000063000000000000000000000000000000000000
#0095b:000000000000000023000000000000130000000000000000
#00952:34630000
#00956:000000000000000000000000000000000023000000000000000000000000130000000000000000000000000000000000
#01456:00530022
#01452:0000000000530000
#01457:63
#01458:00000022
#0145b:0000000000630000
#01352:360000000000000000000000000000000023000000000000000000000000130000000000000000000000000000000000
#01357:000000000000000000000000000000000023000000000000000000000000130000000000000000000000000000000000
#0135b:00530000
#01356:00530000
#01653:00530000
#0165a:5323
#01656:00000052
#01959:004500000000004500000000
#01952:000000000034000000000000000035000000000000000000
#01958:000000000000000000000053000000000000000000000000
#01956:0024
#02254:00000052
#0225a:0000000000000054
#02352:0054
#02356:0000000000540000
#03954:005800
#0395a:0000440000640000
#03958:00000046
#00156:00000062
#00153:0000000000000022
#00258:00000052
#0025b:0000000000000022
#00657:0052
#01152:00330000
#0115b:00430000
#01252:53
#0125a:00640000
#01256:000000000000000000000000240000000000000000000000000000000000000000000000000000000000000000000000000000000000000000000000000028000000006800680000280000000000000000000000000000000000000000000000
#01255:000000000000000000000000000000000000000000000000000000000000000000002500000000000000000000000000000000000000000000000000000000000000290000000069006900002900000000000000000000000000000000000000
#01258:000000000000000000000000000000262600000000000000
#01257:000000000000000000000000000000000000000000000000000000000000000000000000000000000000000000000000000000000000000000000000006700670067000027000000000000000000000000000000000000000000000000000000
#01254:000000000000000000000000000000000000000000000000000000000000000000000000000000000000000000000000000000000000000000000000000000000000000000002a000000006a006a000000000000000000000000000000000000
#01253:000000000000000000000000000000000000000000000000000000000000000000000000002b00000000000000000000
#0175a:14
#01758:00000022
#0175c:0000000000000052
#01756:0000000000000054
#01752:14
#02552:3653
#02556:0000000000230000
#0255b:0000002300000000
#02557:00530000
#02156:0000000000002264
#02152:1400000000000062
#0215a:14
#0035c:0000000000520000
#00352:0062
#03356:48000034
#03352:00346400
#0335a:0064000000000000
#04057:47000000000000004725000000000000
#04054:00000000000000000000002500000000
#04052:0000370054370000
#0405a:0000000000640000
#04252:0022
#0425c:00000022
#04256:22
#03456:640000000000000000000000440000000000000000000000540000000000000000000000000000000024000000000000
#03457:000000000000000000000000000000000057000000000000
#03452:00000034
#03852:00000034
#0385a:00440000
#0295b:6363
#02957:0023000000230000
#02952:00000053
#02656:0023000000230000
#02652:5353
#0265b:00000063
#02452:000016004c3c0000
#02458:16
#0355a:00440000
#03552:00000034
#03652:000000000000000000000064000000240000360000000000
#0365a:0000440064240000
#03658:00000046
#01852:000000000000000000000000000000000000000064000036
#01856:000000000000000000000024
#02756:00545454
#02752:5600000000220022
#0275c:0022002200000000
#02856:54545400
#02852:0000002200000000
#0285c:0022000000220000
#03056:00646464
#0305c:0000000000220022
#03052:0022002200000000
#03058:66
#03156:64646400
#0315c:0000002200000000
#03152:0022000000220000
#001360:000000000000000000000000120032220000000000000000
#001381:000000000000000000000000000000120032220000000000
#001360:00000012
#001330:0000000000000032
#002360:22
#002380:000000000000000000000000120032220000000000000000
#002361:000000000000000000000000000000120032220000000000
#002380:00000012
#0023b0:0000000000000032
#003380:22
#003321:12
#003341:003200000000000000000000000000000000000000000000
#003361:000032220000000000000000000000000000000000000000
#003380:0012000000000000
#0033a0:003200000000
#0033c0:000000000032220000000000000000000000000000000000
#003320:0012
#003360:000000000000003200220000
#0033c1:0000000000120000
#003381:000000000000000000000000000000000032220000000000
#0043c1:0000000012220000
#004320:0000000000122200
#008320:0013000000000000
#008360:000000000000000000000023000000000000000000000000000000000000000000000000000000000000000000000000
#0083b0:000000000000000013000033000000000000000000000000
#008380:000000000000000000000000520052250000000000000000
#008321:000000000000000000000013000000000000000000000000
#008361:000000000000525200000000
#008331:0000000000250000
#009371:000000000013000000000023000000000000000000000000
#0093b1:005300
#009320:000000000000130000000023000000000000000000000000
#009360:000000000000000000000000000000000053000000000000000000000000000000000000000000000000000000000000
#010360:13
#010320:0023000000000000
#010370:00130000
#0103b0:0000002300000000
#010320:0000000000130000
#010370:0000000000005222
#0103b1:0000000000130000
#010371:000000000000000000000000000000000000000000000000000000000000000000000000000000000000000000000000000000000000000000000000000000000000000000000000000000000000000000000000000000000000000000000000000000000000000000000000000000000000000000000000000000000000000000000000000000000000000000000000000000000000000000000000000000000000000000000000000000000000000000000000000000000000000000000000000000000000000000000000000000000000000000000000000000000000000000000000000000000000000000000000000000000000000000000000000000000000000000000000000000000000000000000000000000000000000000000000000000000000000000000000000000000000000000000000000000000000000000000000000000000000000000000000000000000000000000000000000000000000000000000000000000000000000000000000000000000000000000000000000000000000000000000000000000000000000000000000000000000000000000000000000000000000000000000000000000000000000000000000000000000000000000000000000000000000000000000000000000000000000000000000000000000000000000000000000000000000000000000000000000000000000000000000000000000000000000000000000000000000000000000000000000000000000000000000000000000000000000000000000000000000000000000000000000000000000000000000000000000000000000000000000000000000000000000000000000000000000000000000000000000000000000000000000000000000000000000000000000000000000000000000000000000000000000000000000000000000000000000000000000000000000000000000000000000000000000000000000000000000000000000000000000000000000000000000000000000000000000000000000000000000000000000000000000000000000000000000000000000000000000000000000000000000000000000000000000000000000000000000000000000000000000000000000000000000000000000000000000000000000000000000000000000000000000000000000000000000000000000000000000000000000000000000000000000000000000000000000000000000000000000000000000000000000000000000000000000000000000000000000000000000000000000000000000000000000000000000000000000000000000000000000000000000000000000000000000000000000000000000000000000000000000000000000000000000000000000000000000000000000000000000000000000000000000000000000000000000000000000000000000000000000000000000000000000000000000000000000000000000000000000000000000000000000000000000000000000000000000000000000000000000000000000000000000000000000000000000000000000000000000000000000000000000000000000000000000000000000000000000000000000000000000000000000000000000000000000000000000000000000000000000000000000000000000000000000000000000000000000000000000000000000000000000000000000000000000000000000000000000000000000000000000000000000000000000000000000000000000000000000000000000000000000000000000000000000000000000000000000000000000000000000000000000000000000000000000000000000000000000000000000000000000000000000000000000000000000000000000000000000000000000000000000000000000000000000000000000000000000000000000000000000000000000000000000000000000000000000000000000000000000052000000000000000000000000000000000000000000000000000000000000000000000000000000000000000000000000000000000000000000000000000000000000000000000000000000000000000000000000000000000000000000000000000000000000000000000000000000000000000000000000000000000000000000000000000000000000000000000000000000000000000000000000000000000000000000000000000000000000000000000000000000000000000000000000000000000000000000000000000000000000000000000000000000000000000000000000000000000000000000000022000000000000000000000000000000000000000000000000000000000000000000000000000000000000000000000000000000000000000000000000000000000000000000000000000000000000000000000000000000000000000000000000000000000000000000000000000000000000000000000000000000000000000000000000000000000000000000000000000000000000000000000000000000000000000000000000000000000000000000000000000000000000000000000000000000000000000000000000000000000000000000000000000000000000000000000000000000000000000000000000
#012320:13250000
#012360:0054000000000000
#0123a1:00140000
#012351:000000000000000000000000000000000055000000000000000000000000000000000000000000000000000000000000
#012381:000000000000000000000026000000000000000000000000
#012381:000000000000000000000000000000165600000000000000
#012371:000000000000000000000000000000000000000000000000000000000000000000000000000000000000000000000000000000000000000000000000005700570057000057000000000000000000000000000000000000000000000000000000
#012361:000000000000000000000000000000000000000000000000000000000000000000000000000000000000000000000000000000000000000000000000000058000000005800580000580000000000000000000000000000000000000000000000
#012351:000000000000000000000000000000000000000000000000000000000000000000000000000000000000000000000000000000000000000000000000000000000000590000000059005900005900000000000000000000000000000000000000
#012341:000000000000000000000000000000000000000000000000000000000000000000000000000000000000000000000000000000000000000000000000000000000000000000005a000000005a005a000000000000000000000000000000000000
#012331:000000000000000000000000000000000000000000000000000000000000000000000000005b00000000000000000000
#012321:0000000000000000000000000000000000000000000000000000000000000000000000000000000000000000000000000000000000000000000000000000000000000000000000000000000000000000000000000000000000000000000000000000000000000000005c0000000000002c000000000000000000000000000000
#012320:000000000000000000000000000000000000000000000000000000000000000000000000000000000000000000000000000000000000000000000000000000000000000000000000000000000000000000000000000000000000000000000000000000000000000000000000000000000000000000000000000000000000000000000000000000000000000000000000000000000000000000000000000000000000000000000000000000000000000000000000000000000000000000000000000000000000000000000000000000000000000000000000000000000000000000000000000000000000000000000000000000000000000000000000000000000000000000000000000000000000000000000000000000000000000000000000000000000000000000000000000000000000000000000000000000000000000000000000000000000000000000000000000000000000000000000000000000000000000000000000000000000000000000000000000000000000000000000000000000000000000000000000000000000000000000000000000000000000000000000000000000000000000000000000000000000000000000000000000000000000000000000000000000000000000000000000000000000000000000000000000000000000000000000000000000000000000000000000000000000000000000000000000000000000000000000000000000000000000000000000000000000000000000000000000000000000000000000000000000000000000000000000000000000000000000000000000000000000000000000000000000000000000000000000000000000000000000000000000000000000000000000000000000000000000000000000000000000000000000000000000000000000000000000000000000000000000000000000000000000000000000000000000000000000000000000000000000000000000000000000000000000000000000000000000000000000000000000000000000000000000000000000000000000000000000000000000000000000000000000000000000000000000000000000000000000000000000000000000000000000000000000000000000000000000000000000000000000000000000000000000000000000000000000000000000000000000000000000000000000000000000000000000000000000000000000000000000000000000000000000000000000000000000000000000000000000000000000000000000000000000000000000000000000000000000000000000000000000000000000000000000000000000000000000000000000000000000000000000000000000000000000000000000000000000000000000000000000000000000000000000000000000000000000000000000000000000000000000000000000000000000000000000000000000000000000000000000000000000000000000000000000000000000000000000000000000000000000000000000000000000000000000000000000000000000000000000000000000000000000000000000000000000000000000000000000000000000000000000000000000000000000000000000000000000000000000000000000000000000000000165c0000000000000000000000000000000000000000000000000000000000000000000000000000000000000000000000000000000000000000000000000000000000000000000000000000000000000000000000000000000000000000000000000000000000000000000000000000000000000000000000000000000000000000000000000000000000000000000000000000000000000000000000000000000000000000000000000000000000000000000000000000000000000000000000000000000000000000000000000000000000000000000000000000000000000000000000000000000000000000000000000000000000000000000000000000000000000000000000000000000000000000000000000000000000000000000000000000000000000000000000000000000000000000000000000000000000000000000000000000000000000000000000000000000000000000000000000000000000000000000000000000000000000000000000000000000000000000000000000000000000000000000000000000000000000000000000000000000000000000000000000000000000000000000000000000000000000000000000000000000000000000000000000000000000000000000000000000000000000000002c000000000000000000000000000000000000000000000000000000000000000000000000000000000000000000000000000000000000000000000000000000000000000000000000000000000000000000000000000000000000000000000000000000000000000000000000000000000000000000000000000000000000000000000000000000000000000000000000000000000000000000000000000000000000000000000000000000000000000000000000000000000000000000000000000000000000000000000000000000000000000000000000000000000000000000000000000000000000000000000000
#0133b1:000000000000130000000023000000000000000000000000
#013371:000000000000000000000000000000000053000000000000000000000000000000000000000000000000000000000000
#013360:000000000000130000000023000000000000000000000000
#013320:000000000000000000000000000000000053000000000000000000000000000000000000000000000000000000000000
#014370:13
#0143b0:0023000000000000
#014360:00130000
#014320:0000002300000000
#014320:0000000000130023
#014360:00000052
#0143b1:0000000000130023
#014381:00000052
#0153b1:1323000000000000
#015321:0000132300000000
#0163a1:13
#016381:0033000000000000
#016371:000000000033000000000000000000000000000000000000
#016361:00220000
#016330:00130000
#016350:003300
#016360:0000003300000000
#016370:000000000000000000000033000000000000000000000000
#016380:0022
#0163a1:000000000000000000000000130033330033000033330000
#016361:00000052
#0173a1:24
#017381:000000122200000000000000
#0173a1:000000000000000000120022000000000000000000000000
#0173c1:000000000000122200000000
#0173a1:000000000000000000000000000000120022000000000000
#017381:00000012
#0173c1:0000000000000032
#018381:22
#017360:0000000000000014
#018320:24
#018320:000000000000000000000000000000000000000014000026
#018360:000000000000000000000054
#019380:000000000000000000000013000000000000000000000000
#019360:0054
#019390:000000000000002500000000
#020370:12220000
#020320:0052000000000000
#0203c1:00120000
#020371:0000002200000000
#020361:00001323
#0203b1:0000000000530000
#020320:00000013
#020370:0000000000000023
#021360:000000122200000000000000
#021340:000000000000000000120022000000000000000000000000
#021320:000000000000122200000000
#021340:000000000000000000000000000000120022000000000000
#021360:00000012
#021320:0000000000000032
#022360:22
#021361:0000000000000014
#0223a1:24
#022341:00000012
#022381:0000000000000022
#0223a0:0000000000000014
#023360:24
#023320:000000142400000000000000
#023360:000000000000000000140024000000000000000000000000
#023320:000000000000000000000000140000000034240000000000
#023360:000000000000000000000000000034340000000000000000
#025370:00132300
#0253b0:0000005300000000
#025321:00001323
#025361:0000000000530000
#026321:13230000
#026361:0053000000000000
#026321:00001323
#026361:0000000000530000
#0263b0:00000013
#026360:000000000000000000000000000000000000005400000000
#028360:00000024
#027321:1600000000520052
#0273c1:0052005200000000
#027361:00343434
#028361:340000000000000000000000000000000000000000000000000000000000000000000000000000000000000000000000000000000000000000000000000000000000000000000000000000000000000000000000000000000000000000000000000000000000000000000000000000000000000000000000000000000000000000000000000000000000000000000000000000000000000000000000000000000000000000000000000000000000000000000000000000000000000000000000000000000000000000000000000000000000000000000000000000000000000000000000000000000000000000000000000000000000000000000000000000000000000000000000000000000000000000000000000000000000000000000000000000000000000000000000000000000000000000000000000000000000000000000000000000000000000000000000000000000000000000000000000000000000000000000000000000000000000000000000000000000000000000000000000000000000000000000000000000000000000000000000000000000000000000000000000000000000000000000000000000000000000000000000000000000000000000000000000000000000000000000000000000000000000000000000340000000000000000000000000000000000000000000000000000000000000000000000000000000000000000000000000000000000000000000000000000000000000000000000000000000000000000000000000000000000000000000000000000000000000000000000000000000000000000000000000000000000000000000000000000000000000000000000000000000000000000000000000000000000000000000000000000000000000000000000000000000000000000000000000000000000000000000000000000000000000000000000000000000000000000000000000000000000000000000000000000000000000000000000000000000000000000000000000000000000000000000000000000000000000000000000000000000000000000000000000000000000000000000000000000000000000000000000000000000000000000000000000000000000000000000000000000000000000000000000000000000000000000000000000000000000000000000000000000000000000000000000000000000000000000000000000000000000000000000000000000000000000000000000000000000000000000000000000000000000000000000000000000000000000000000000000000000000000000000000340000000000000000000000000000000000000000000000000000000000000000000000000000000000000000000000000000000000000000000000000000000000000000000000000000000000000000000000000000000000000000000000000000000000000000000000000000000000000000000000000000000000000000000000000000000000000000000000000000000000000000000000000000000000000000000000000000000000000000000000000000000000000000000000000000000000000000000000000000000000000000000000000000000000000000000000000000000000000000000000000000000000000000000000000000000000000000000000000000000000000000000000000000000000000000000000000000000000000000000000000000000000000000000000000000000000000000000000000000000000000000000000000000000000000000000000000000000000000000000000000000000000000000000000000000000000000000000000000000000000000000000000000000000000000000000000000000000000000000000000000000000000000000000000000000000000000000000000000000000000000000000000000000000000000000000000000000000000000000000024000000000000000000000000000000000000000000000000000000000000000000000000000000000000000000000000000000000000000000000000000000000000000000000000000000000000000000000000000000000000000000000000000000000000000000000000000000000000000000000000000000000000000000000000000000000000000000000000000000000000000000000000000000000000000000000000000000000000000000000000000000000000000000000000000000000000000000000000000000000000000000000000000000000000000000000000000000000000000000000000000000000000000000000000000000000000000000000000000000000000000000000000000000000000000000000000000000000000000000000000000000000000000000000000000000000000000000000000000000000000000000000000000000000000000000000000000000000000000000000000000000000000000000000000000000000000000000000000000000000000000000000000000000000000000000000000000000000000000000000000000000000000000000000000000000000000000000000000000000000000000000000000000000000000000000000000000000000000000000000000
#0283c1:0052000000520000
#028321:0000005200000000
#0293b0:13230000
#029370:0053000000000000
#0293b0:00001323
#029370:0000000000530000
#029321:00000013
#029361:000000000000000000000000000000000000005400000000
#031361:00000024
#030380:16
#030320:0052005200000000
#030360:00343434
#0303c0:0000000000520052
#031360:340000000000000000000000000000000000000000000000000000000000000000000000000000000000000000000000000000000000000000000000000000000000000000000000000000000000000000000000000000000000000000000000000000000000000000000000000000000000000000000000000000000000000000000000000000000000000000000000000000000000000000000000000000000000000000000000000000000000000000000000000000000000000000000000000000000000000000000000000000000000000000000000000000000000000000000000000000000000000000000000000000000000000000000000000000000000000000000000000000000000000000000000000000000000000000000000000000000000000000000000000000000000000000000000000000000000000000000000000000000000000000000000000000000000000000000000000000000000000000000000000000000000000000000000000000000000000000000000000000000000000000000000000000000000000000000000000000000000000000000000000000000000000000000000000000000000000000000000000000000000000000000000000000000000000000000000000000000000000000000000340000000000000000000000000000000000000000000000000000000000000000000000000000000000000000000000000000000000000000000000000000000000000000000000000000000000000000000000000000000000000000000000000000000000000000000000000000000000000000000000000000000000000000000000000000000000000000000000000000000000000000000000000000000000000000000000000000000000000000000000000000000000000000000000000000000000000000000000000000000000000000000000000000000000000000000000000000000000000000000000000000000000000000000000000000000000000000000000000000000000000000000000000000000000000000000000000000000000000000000000000000000000000000000000000000000000000000000000000000000000000000000000000000000000000000000000000000000000000000000000000000000000000000000000000000000000000000000000000000000000000000000000000000000000000000000000000000000000000000000000000000000000000000000000000000000000000000000000000000000000000000000000000000000000000000000000000000000000000000000000340000000000000000000000000000000000000000000000000000000000000000000000000000000000000000000000000000000000000000000000000000000000000000000000000000000000000000000000000000000000000000000000000000000000000000000000000000000000000000000000000000000000000000000000000000000000000000000000000000000000000000000000000000000000000000000000000000000000000000000000000000000000000000000000000000000000000000000000000000000000000000000000000000000000000000000000000000000000000000000000000000000000000000000000000000000000000000000000000000000000000000000000000000000000000000000000000000000000000000000000000000000000000000000000000000000000000000000000000000000000000000000000000000000000000000000000000000000000000000000000000000000000000000000000000000000000000000000000000000000000000000000000000000000000000000000000000000000000000000000000000000000000000000000000000000000000000000000000000000000000000000000000000000000000000000000000000000000000000000000024000000000000000000000000000000000000000000000000000000000000000000000000000000000000000000000000000000000000000000000000000000000000000000000000000000000000000000000000000000000000000000000000000000000000000000000000000000000000000000000000000000000000000000000000000000000000000000000000000000000000000000000000000000000000000000000000000000000000000000000000000000000000000000000000000000000000000000000000000000000000000000000000000000000000000000000000000000000000000000000000000000000000000000000000000000000000000000000000000000000000000000000000000000000000000000000000000000000000000000000000000000000000000000000000000000000000000000000000000000000000000000000000000000000000000000000000000000000000000000000000000000000000000000000000000000000000000000000000000000000000000000000000000000000000000000000000000000000000000000000000000000000000000000000000000000000000000000000000000000000000000000000000000000000000000000000000000000000000000000000000
#031320:0052000000520000
#0313c0:0000005200000000
#0333a1:0014000000000000
#033361:00240000
#033321:0014
#033361:0000000000240000
#034361:14
#034321:0024000000000000
#034361:0014
#0343a1:000000000000002400000000
#034371:000000000000000000000000000000000017000000000000
#034361:000000000000000000000000000000000000000000000000000000000000000000000000000000000054000000000000
#0353a1:24
#035360:14000000000000000000000000000054000000000000000000000000000000000000000000000000000000000000000000000000000000000000000000000000
#035340:00340000
#035320:00000000000000000000000000000000005400540054005400540054005400542500000000000000000000000000000000000000000000000000000000000000
#035330:0000000000000000005454545454545400000000000000000000000000000000
#036320:000000000000000000000014000000000000260000000000
#0363a0:0000000000540000
#0363a1:0014
#036321:0000000000540000
#036381:00000026
#037321:00000014
#037371:0000000000000034
#038321:24
#0373b0:0000000000000013
#038360:23
#0383a0:00000014
#038360:0000000000000024
#038321:0000000000000014
#039361:24
#039341:001800
#0393a1:0024
#0393a1:0000000000140000
#039361:000000000000000000000000000000000024000000000000
#040321:0000000014270000
#040371:00000000000000000055000000000000
#0403a0:0000000000140000
#040340:00000000000000000000005500000000
#040360:00000028
#042360:12
#042320:00220000
#042320:0012
#042360:00000022
#0423c1:00000012
#042381:0000000000000022
#0433a1:14
#044361:00220000
#003960:00000012
#003930:0000000000000022
#003981:00000012
#0039b1:0000000000000022
#0059c1:001200220000000000000000
#0059a1:000012220000
#005981:000000000000001200220000
#0059a1:000000000012
#0069a1:22
#006960:12
#006940:002200000000000000000000000000000000000000000000
#006980:0012000000000000
#0069a0:002200000000
#006940:00120000
#006920:000000000000002200000000000000000000000000000000
#0069a0:0000001200000000
#0069c0:000000000022000000000000
#006970:0012
#006950:0000000000260000
#008960:000000000000000000000013000000000000000000000000000000000000000000000000000000000000000000000000
#008920:000000000000000000000000002300000000000000000000000000000000000000000000000000000000000000000000
#032990:001300000000000000000000
#0329b0:0023000000000000
#032940:000000000013000000000000000000000000000000000000
#032920:00230000
#032980:001300
#0329a0:0000002300000000
#032960:000000000000000000000013000000000000000000000000
#032940:0023
#032970:000000000000001300000000
#032990:0000000000230000
#032950:000000000000000000000000000000000013000000000000
#032930:00000023
#032990:000000000013
#0329b0:0000000000000023
#032940:000000000000000000000000000000000000000000000013
#033920:23
#041920:001200000000000000000000000000000000000000000000000000000000000000000000000000000000000000000000000000000000000000000000000000000000000000000000000000000000000000000000000000000000000000000000000000000000000000000000000000000000000000000000000000000000000000000000000000000000000000000000000000000000000000000000000000000000000000000000000000000000000000000000000000000000000000000000000000000000000000000000000000000000000000000000000000000000000000000000000000000000000000000000000000000000000000000000000000000000000000000000000000000000000000000000000000000000000000000000000000000000000000000000000000000000000000000000000000000000000000000000000000000000000000000000000000000000000000000000000000000000000000000000000000000000000000000000000000000000000000000000000000000000000000000000000000000000000000000000000000000000000000000000000000000000000000000000000000000000000000000000000000000000000000000000000000000000000000000000000000000000000000000000000000000000000000000000000000000000000000000000000000000000000000000000000000000000000000000000000000000000000000000000000000000000000000000000000000000000000000000000000000000000000000000000000000000000000000000000000000000000000000000000000000000000000000000000000000000000000000000000000000000000000000000000000000000000000000000000000000000000000000000000000000000000000000000000000000000000000000000000000000000000000000000000000000000000000000000000000000000000000000000000000000000000000000000000000000000000000000000000000000000000000000000000000000000000000000000000000000000000000000000000000000000000000000000000000000000000000000000000000000000000000000000000000000000000000000000000000000000000000000000000000000000000000000000000000000000000000000000000000000000000000000000000000000000000000000000000000000000000000000000000000000000000000000000000000000000000000000000000000000000000000000000000000000000000000000000000000000000000000000000000220000000000000000000000000000000000000000000000000000000000000000000000000000000000000000000000000000000000000000000000000000000000000000000000000000000000000000000000000000000000000000000000000000000000000000000000000000000000000000000000000000000000000000000000000000000000000000000000000000000000000000000000000000000000000000000000000000000000000000000000000000000000000000000000000000000000000000000000000000000000000000000000000000000000000000000000000000000000000000000000000000000000000000000000000000000000000000000000000000000000000000000000000000000000000000000000000000000000000000000000000000000000000000000000000000000000000000000000000000000000000000000000000000000000000000000000000000000000000000000000000000000000000000000000000000000000000000000000000000000000000000000000000000000000000000000000000000000000000000000000000000000000000000000000000000000000000000000000000000000000000000000000000000000000000000000000000000000000000000000000000000000000000000000000000000000000000000000000000000000000000000000000000000000000000000000000000000000000000000000000000000000000000000000000000000000000000000000000000000000000000000000000000000000000000000000000000000000000000000000000000000000000000000000000000000000000000000000000000000000000000000000000000000000000000000000000000000000000000000000000000000000000000000000000000000000000000000000000000000000000000000000000000000000000000000000000000000000000000000000000000000000000000000000000000000000000000000000000000000000000000000000000000000000000000000000000000000000000000000000000000000000000000000000000000000000000000000000000000000000000000000000000000000000000000000000000000000000000000000000000000000000000000000000000000000000000000000000000000000000000000000000000000000000000000000000000000000000000000000000000000000000000000000000000000000000000000000000000000000000000000000000000000000000000000000000000000000000000000000000000
#042920:0000000000000012
#042960:000000000000000000000000000000000000000000000022
