This file was generated by Ched 2.7.0.0.
#TITLE ""
#ARTIST ""
#DESIGNER ""
#DIFFICULTY 0
#PLAYLEVEL
#SONGID ""
#WAVE ""
#WAVEOFFSET 0
#JACKET ""
#REQUEST "ticks_per_beat 480"
#00002: 4
#BPM01: 100
#00008: 01
#TIL00: ""
#VOLUME: ""
#HISPEED 00
#MEASUREHS 00
#00118:14000014
#00114:0014
#00212:14
#00218:0014
#00214:00000014
#00418:1414
#00414:00140014
#00410:41
#00914:00140000
#0091a:24
#00910:41
#01012:14
#01018:00140000
#0111a:14
#01114:00140000
#01118:0014
#01112:00000014
#0121a:14
#01214:00140000
#01318:00140000
#01312:24
#0141a:14
#01414:00140000
#01512:14
#01518:00140000
#01514:0014
#0151a:00000014
#01510:41
#01612:14
#01618:00140000
#01718:26001414
#01714:0000000000140000
#01712:00160000
#01812:16
#01818:0000160000140000
#01814:00001414
#01918:1616
#01912:00160016
#0201a:14
#02012:0014
#02010:41
#02112:00160000
#02118:2614
#02114:0000000000140000
#0211a:00000014
#02212:16000014
#02218:0000160000140000
#02214:0014
#02318:14
#02314:0014
#02313:0000000000340000
#02319:0034000000000000
#02418:16001414
#02412:00160000
#02414:0000000000140014
#02512:00140000
#0251a:0014
#02518:24
#02614:00000014
#02610:41
#0271a:14
#02716:00140000
#02712:00001414
#0271f:11
#02816:1414
#02812:00140000
#02918:00000014
#0321a:00140000
#03214:0014
#03218:00000014
#0331a:00140000
#03314:0014
#03318:00000014
#03312:24
#0331f:21
#03310:0041
#03412:14
#0341a:00140000
#03414:0014
#03512:00140000
#03518:0014
#03514:00000014
#0351a:24
#0361a:14
#03612:00140000
#03618:0014
#03718:0000160000140000
#03712:2614
#03714:00000014
#03812:00160000
#0381a:0014
#03814:0000000000140000
#03818:26000014
#03912:26160000
#03918:00002616
#04018:0000260000160016
#04012:26002616
#04112:16
#04118:00140000
#04114:0014
#04218:00000014
#03012:14
#03016:00140000
#0301a:00001414
#03116:1414
#0311a:00140000
#00814:0000000000240000
#00718:00343400
#00612:0034
#00613:00340000
#0051a:0034
#00519:00340000
#00854:0000000000140000
#01758:16
#01958:1616
#02052:0054
#0205a:54
#02358:54
#02354:0064
#02558:14
#03252:14
#0325a:00140000
#03254:0014
#03258:00000014
#03352:14
#03454:0054
#03658:0064
#04152:16
#0033a0:14240000
#003320:00001424
#005380:14
#005390:00340000
#0053a0:00003424
#006340:14
#006330:00340000
#006320:00003424
#0073a0:14
#007380:00343424
#008340:140000000000340000000034000000240000000000000000
#0093a0:00001424
#010320:00001424
#012380:00001424
#013320:0014
#013340:00000024
#0143a0:0014
#014380:00000024
#016340:0014
#016320:00000024
#0203a0:14
#020380:00240000
#020320:0014
#020340:00000024
#023380:14
#023390:0034000000000000
#0233a0:00240000
#023340:0014
#023330:0000000000340000
#023320:00000024
#025320:0000000000001434
#026320:24
#0263a0:0000143424000000
#0283a0:0000000000001434
#0293a0:24
#029320:0000143424000000
#031320:0000000000001434
#032320:24
#034340:0014
#034320:00000024
#036380:0014
#0363a0:00000024
#0413a0:0000000000001434
#0423a0:24
#042320:0000143424000000
#043340:14
#044340:00240000
