This file was generated by Ched 2.7.0.0.
#TITLE ""
#ARTIST ""
#DESIGNER ""
#DIFFICULTY 0
#PLAYLEVEL
#SONGID ""
#WAVE ""
#WAVEOFFSET 0
#JACKET ""
#REQUEST "ticks_per_beat 480"
#00002: 4
#BPM01: 151
#BPM02: 136
#BPM03: 121
#BPM04: 106
#BPM05: 91
#BPM06: 76
#BPM07: 61
#BPM08: 23
#00008: 01
#06408: 0600070008010000
#06308: 02030405
#TIL00: ""
#VOLUME: ""
#HISPEED 00
#MEASUREHS 00
#06214:14
#06118:14
#05818:14
#04312:0016
#04318:16
#04212:0016
#04218:16
#04112:0016
#04118:16
#04012:1616
#03918:0016
#03912:16
#03818:1616
#03712:0016
#03718:26
#03710:41
#0251a:14
#02012:14
#0191a:14
#01814:14
#01612:0016
#01618:16
#01512:0016
#01518:16
#01412:1616
#01318:1616
#01212:0016
#01218:16
#01112:0016
#01118:16
#01012:1616
#00918:2616
#00910:41
#00812:14
#00712:14
#0061a:14
#0051a:14
#02812:14
#02712:14
#0261a:14
#02414:14
#02314:14
#02218:14
#02118:14
#02110:41
#00414:14
#00314:14
#00218:14
#00118:14
#06518:0016
#06512:26
#0651f:21
#06612:16
#06618:0016
#06610:41
#06712:16
#06718:0016
#06812:16
#06818:0016
#07318:0016
#07312:26
#07518:16
#07512:0016
#07712:16
#07718:0016
#07812:16
#07818:0016
#07912:16
#07918:0016
#08012:16
#08018:0016
#08512:14
#08618:14
#08714:14
#0881a:14
#08914:14
#09018:14
#0591f:11
#01718:24
#08112:26
#08110:41
#0521a:34
#05119:0034
#04818:34
#04719:0034
#05012:34
#04913:0034
#04614:34
#04513:0034
#05310:41
#029380:14
#030380:24
#031340:14
#032340:24
#0333a0:14
#0343a0:24
#035320:14
#036320:24
#044380:1626
#045320:14
#045330:0034
#046340:3424
#0473a0:14
#047390:0034
#048380:3424
#049340:14
#049330:0034
#050320:3424
#051380:14
#051390:0034
#0523a0:3424
#053320:1434
#054320:00343400
#055320:34
#055340:0000000000000034
#056340:0034003400000000
#057340:24
#059320:14
#060320:24
#0633a0:14
#064380:5400000000240000
#069320:1626
#070380:1626
#071320:1626
#072380:1626
#074320:1626
#076380:1626
#081320:16
#083320:26
#083380:0016
#084380:36362600
#091320:14
#091330:0034
#092340:3434342400000000
