This file was generated by Ched 2.7.0.0.
#TITLE ""
#ARTIST ""
#DESIGNER ""
#DIFFICULTY 0
#PLAYLEVEL
#SONGID ""
#WAVE ""
#WAVEOFFSET 0
#JACKET ""
#REQUEST "ticks_per_beat 480"
#00002: 4
#BPM01: 151
#BPM02: 23
#BPM03: 61
#BPM04: 76
#BPM05: 91
#BPM06: 106
#BPM07: 121
#BPM08: 136
#00008: 01
#06408: 0400030002010000
#06308: 08070605
#TIL00: ""
#VOLUME: ""
#HISPEED 00
#MEASUREHS 00
#00514:12121212
#00612:12121200
#00614:00000012
#00616:0000000000000012
#00718:12121200
#00716:00000012
#0071a:0000000000000012
#0011c:12121212
#0021c:12121200
#00216:0000000000120000
#0021a:00000012
#00214:0000000000000012
#00912:1313000053130000
#00916:0000531300005313
#00918:26
#00910:41
#00914:00000053000000530000005300000053
#01017:0013
#01014:00000053000000000000130000000000
#01019:00000013
#01012:5313000000000000
#01016:0000530000000013
#01115:0013000000000000
#01118:00000013000013000000000000000000
#01112:00000000000000130000000000001300
#01117:00000000000000000000000000000013
#0111b:13000013
#01119:0013
#01113:00000000000000000013000000000000
#0111a:0000000000130000
#01114:00000000000000000000001300000000
#01312:1300001300000013
#0131b:00130013
#01315:0000130000130000
#01318:1313
#01515:0000000000130000
#01512:00130013
#0151b:0000131300000000
#01518:0000000013000014
#01616:0000000000120000
#01618:0025002600000012
#01614:24
#01612:00260000
#01218:0000000000130000
#01215:00000013
#01212:00000013000000000000000000001300
#0121b:0013
#01217:0013000000000000
#00418:1200120012000012
#00414:00000012
#00416:0000000000120000
#03115:0013000000130000
#03118:0000130013000013
#0311b:0000001300000000
#03112:1300000000001313
#03212:0000001300130000
#03215:0013000000001300
#03218:0000001300000013
#0321b:0013000000000000
#03415:0013001300001300
#0341b:00130013
#03418:1313
#03412:0013
#03312:0000000013000013
#0331b:0013
#03318:0000230000130000
#03315:00230013
#03015:0013000000001300
#03018:00130000
#0351b:1300001300130000
#03518:00130013
#03512:1300001300130000
#03515:0013000000000013
#01718:00130000
#0171b:13
#01712:26130000
#01715:00001313
#0211b:00231300
#02112:00231300
#02115:0000000000130013
#02118:00000013
#02110:41
#0231b:1313
#02312:1300000013000013
#02318:0000000000130013
#02315:00000013
#02412:0000001400000013
#0241a:0000001400000000
#02418:0000000000130000
#02415:0013000000001300
#0241b:0013000000000013
#0251b:0013000013000000
#02518:0000130000130013
#02515:0000001300001300
#02512:0013
#02516:13
#02815:0000130000130013
#0281b:0000001300000000
#02818:0013000000001300
#02812:0000001300000000
#0271b:00130000
#02718:0013000000000000
#02715:13
#02615:0013000000001300
#02618:0000130000130000
#02612:1300001300000013
#0261b:1300001300000000
#01415:00000013
#0141b:0013001300000000
#01412:0000000000130000
#01418:0000000000000013
#04014:2313000000000013
#04019:0000001300000000
#04016:0013
#04017:00230013
#0401b:5323
#04012:00530023
#04013:00000053000000000000000000000000
#07115:00000013
#07118:0000000000000013
#07117:0013000000000000
#07112:13130000
#0711b:1313
#0781c:0000001200000012
#07818:0000000000120000
#0781a:00000012
#07812:00130000000000000000000000000000
#0781b:00130000000000000000000000000000
#07814:00000012
#07816:0000001200000012
#07918:0014
#0791a:0000001400000014
#07912:0000001400000014
#07916:0000000000140000
#07914:00000014
#08315:1300000000000013
#0831a:00000013
#08313:00000013
#08318:1300000000130000
#08312:0013
#0831b:0013
#0851b:13231300
#08514:00130000
#08512:2300000000000014
#08516:0013
#08517:00000023
#08418:14001413
#08413:0014001400000000
#0841a:00140000
#0841b:0000000000130000
#08415:0000000000000013
#08414:2424
#08419:0024002400000000
#08412:00240000
#03814:0000001300000000
#0381b:0013
#03812:00230013
#03819:2313000000000013
#03816:0023
#03817:00530023
#03818:00000053000000000000000000000000
#03815:53
#0391b:13
#03916:2313000000000000
#03918:0000231300000000
#03915:00000053000000002300130000000000
#03919:00000000000000530000000023001300
#03914:00000000530000000000005300000000
#0391a:00000000000000005300000000000053
#03913:00000053
#0421b:1300001300000000
#04215:0000000000000013
#04212:13
#04312:0000130000130000
#04318:0000001300000013
#04315:00001313
#0431b:00230000
#0441b:1300000000000013
#04413:0013000000000000
#04419:00130000
#04415:00000000000013000000001300000000
#04418:0000002300130000
#04412:23
#0441a:0023000000000000
#04414:00230000
#05716:0000000000140014
#05712:1414
#0571a:00241414
#05816:0014001400001400
#05812:1400140000000014
#0581a:0000000000140000
#07212:1324152600000000
#0721a:0014000000000000
#07218:0000001600000000
#07219:00250000
#0721b:23
#0691b:13130000
#06912:1300000013130000
#06915:00000013
#06918:0000000000000013
#06916:0013000000000000
#06518:00001300000000130000130000000013
#06515:23000013000013000000001300001300
#06519:00130000
#06514:0013
#0651a:00000013
#0651f:21
#06618:0013000000230000
#06615:00000013000013000000000000002300
#0661b:00132313
#06613:13
#06612:00001323
#06610:41
#06812:0000001300000013
#06818:0013000013001300
#0681b:0000000000130000
#06815:00000013000000001300000013000000
#06814:13
#06819:00130000
#07015:1300000000000013
#07012:00130000
#07018:0000001300001300
#0701b:0000000000130000
#0741a:0000001400001424
#07412:0014240014240000
#07416:00000014000000002400000024000000
#07413:24
#08012:2616000000240000
#08018:1626002424000000
#0801a:0000000000000024
#08016:00000024
#08014:00000000000000240000000000000000
#04115:0000000000130013
#0411b:1300001300000000
#04112:00130023
#04118:0000000023000013
#04116:23
#04117:00230000
#07716:14142400
#07718:0000000000140013
#07714:0000001400000000
#07715:0000000000000013
#07712:00240014
#0771a:24000024
#09214:0014000000000000
#09212:0000001600000000
#09218:1324152600000000
#09215:23
#09213:00250000
#0031a:12121212
#00316:0000000000000012
#00814:12
#00818:00120000
#0081c:0012
#00816:0012000000000000
#0081a:0000001200000000
#01818:00000013
#01915:00000013
#0221b:1300001300000000
#02218:0013000000001300
#02215:0000130000130013
#02212:1300001300000000
#02918:0000000013000013
#02915:00000013
#02912:23
#0361a:1424142400000000
#03612:2414241400000000
#0371b:2313000000000000
#0371a:00000053000000002300130000000000
#03712:2600231300000000
#03713:00000000000000530000000023001300
#03710:41
#03719:00000000530000000000005300000000
#03718:00000053
#03714:00000000000000005300000000000053
#0621b:12
#06213:12
#0621a:0022
#06216:00000022
#06218:0000000000220000
#06214:0000000000000022
#06115:0000001200120000
#06119:0012000000000012
#0611b:2222
#06117:00220022
#06113:2222
#06415:0000000000131313
#06418:24000000000000002300001300130013
#06414:00240000
#06718:00001300000000130000130000000013
#06715:00000013000013000000001300001300
#0671b:00130000
#06713:0013
#0671a:00000013
#06712:13
#07316:0014240000000000
#0731a:24000014000000000000000000000000
#07314:0000000000142400
#07318:00000000000000000000001400000000
#07313:0000000000000014
#07317:00000000000000000000000000000014
#07319:00000000000000140000000000000000
#07315:0000001424000000
#07312:14
#0591a:14
#05918:0014000000000014
#05916:00140014
#05914:0000001400140000
#05912:0014
#0591f:11
#0601a:14
#06013:0014000000000000
#06018:0000142300000000
#06015:0000001300000000
#06012:24
#06019:0024000000000000
#06014:00240000
#07516:0014240000000000
#07512:24000014000000000000000000000000
#07518:0000000000142400
#07514:00000000000000000000001400000000
#07519:0000000000000014
#07515:00000000000000000000000000000014
#07513:00000000000000140000000000000000
#07517:0000001424000000
#0751a:14
#0761a:0014240024140000
#07616:00000014000000001400000014000000
#07612:0000001400002414
#07619:24
#08616:1400130000130000
#0861a:0014000000000000
#08612:0000001300001300
#08614:0000000000000013
#08619:0000000000000013
#08617:0000001300002300
#0861b:00230000
#08716:13130000
#08717:00001323
#08712:0000000000131300
#0871b:1300230000000013
#08816:13
#08814:0013000000000000
#08812:0000130013130000
#08819:0000001300000000
#08817:0013
#0881b:1300230000130000
#08818:00000013
#08815:00000013
#08917:0013130000000000
#08912:0013230000000000
#08916:00001323
#0891b:0000000000131300
#08915:0000000000000013
#09014:1300000000000013
#09018:0013000000000000
#09017:0000130000130000
#0901b:0000001300001300
#09019:1300000000000013
#09016:0000001300002300
#09012:00230000
#09117:13130000
#09112:13230000
#09116:0013
#0911b:0000000000130000
#09118:00000013
#09115:0000000000000013
#04812:00000013000000000000000013000000
#04815:0000001313000013
#0481b:13000000000000130000000013000000
#04818:00001300130000000000130000000013
#04816:13
#0491b:00130000000000000000000013000000
#04912:13000013
#04914:0013000000000000
#04919:00000013000000001300000000000000
#04913:0000000000130000
#0491a:0000000000000013
#04515:1313230000130000
#04516:0013
#04514:00000013
#04518:00130013000000000000000000001300
#0451b:0013
#04519:00000013
#04612:1300001300000000
#0461a:0000000000130000
#04614:00000013
#04613:0000000000000013
#0461b:0013000013000000
#04619:00000013
#04617:13
#04615:00130000
#04717:00130013000000000000000013000000
#04712:1313130000001300
#0471b:0013
#04719:0000000000130013
#05012:13001313
#05016:0013000000130000
#05017:0000001300000013
#05019:13
#0501b:00130013
#05117:00130000000000001300000000000000
#05112:13000013
#05114:0013000000000000
#05119:00000013000000000000130000001300
#0511b:00000013
#05116:00130000
#05212:13000000000000130000000013000000
#0521b:00000013000000000000000013000000
#05218:0000001313000013
#05217:13
#05215:0013130000130000
#08214:14
#08218:24
#05316:00000000000000120000140000000000
#05314:00140000
#05312:24000014
#05318:00000012000000000000000000000000
#0531a:0014
#05310:41
#05618:0014000000000000
#05614:0012000000000000
#0561a:0000001400001400
#05616:0000001200140014
#05612:0014
#05516:0000000000000014
#05512:0000000013000012
#0551b:13000013
#05515:0000130000130000
#05518:0013001300000000
#05412:0014000000000012
#05414:0000000000120000
#05416:0000001200001400
#0541a:00140000
#05418:0014
#08112:24
#08110:41
#06318:2625
#06313:00000025
#06312:00260000
#01057:0013
#01059:00000013
#0115b:13000013
#0345b:00130013
#03452:0013
#03352:0000000000000013
#03355:00130000
#03358:00130000
#02952:13
#0295b:00130000
#02955:0013
#02958:0000000000000013
#02452:0000003400000053
#0245a:0000004400000000
#02455:0033000000000000
#02556:23
#0385b:0013
#03852:00000013
#0395b:13
#00958:16
#01352:0000000000000053
#0145b:0000006300000000
#01458:0000000000000013
#01752:16
#01758:00130000
#01855:00130000
#01958:00130000
#0215b:00130000
#02152:00130000
#02358:0000130000000043
#02355:00130000
#0235b:63
#02352:53
#03058:00130000
#03052:0013
#0305b:00000013
#03158:0000000000000013
#03255:0013000000000000
#03258:0000001300000000
#03752:16
#04056:0013
#04057:00000013
#0425b:2300000000000013
#04255:0000000000000013
#04252:23
#0625b:52
#06253:62
#06555:13
#06554:0013
#06559:00130000
#0655a:00000013
#0695b:00630000
#07152:00530000
#06752:13
#0675b:00130000
#06753:0013
#0675a:00000013
#0735a:14
#06653:13
#0665b:00130013
#06652:0013
#06854:13
#06859:00130000
#06855:0013
#06858:00000013
#04455:00000000000000000000006300000000
#04155:0000000000000063
#04158:0000000000000053
#07852:00230000000000000000000000000000
#0785b:00230000000000000000000000000000
#07856:0000006200000062
#0785c:0000000000000062
#07755:0000000000000063
#07758:0000000000000053
#07552:14
#08352:00330000
#08355:23
#08358:23
#0835b:00430000
#08552:13
#08556:0023
#0885b:0000000000630043
#08858:00000023
#08855:00000023
#08852:0000000000530033
#08657:0000002300000000
#08756:00230000
#09157:00230000
#08957:00530000
#09056:0000006300000000
#04555:00130000
#04858:00130000
#04855:0013
#05255:00130000
#05258:0013
#04657:53
#0465b:0023000000000000
#04655:00630000
#04652:0000002300000000
#0505b:00630000
#05057:0000002300000000
#05052:53
#05056:0023000000000000
#04752:00530000
#05156:00630000
#08152:54
#08258:54
#08254:64
#05352:14
#0575a:00140000
#05752:14
#0093b0:0000132300000000
#009370:0000000013230000
#0093b0:0000000000001323
#010370:1323000000000000
#0103b0:0000132300000000
#010321:0000001323000000
#011321:0000132300000000
#012321:1323000000000000
#0123b1:0000132300000000
#012360:0000001323000000
#013320:0000000000000013
#014360:0023000000000000
#0143b0:0000001300000000
#014370:0000000000230000
#0173b0:00001333
#017380:0000000000330033
#0183b0:23
#018351:13230000
#018380:0000000000000000135353535353535323000000000000000000000000000000
#018390:00000000000000000000000000000000005300530053005300530053005300530000000000000000000000000000000000000000000000000000000000000000
#018321:00001333
#018351:0000000000330033
#019321:23
#019380:13230000
#019351:0000000000000000135353535353535323000000000000000000000000000000
#019341:00000000000000000000000000000000005300530053005300530053005300530000000000000000000000000000000000000000000000000000000000000000
#0193b0:00001333
#019380:0000000000330033
#0203b0:23
#020361:13
#020341:0023000000000000
#0203b0:0013000000000000
#020390:00230000
#020341:00130000
#020321:0000002300000000
#020390:0000001300000000
#020370:0023
#020321:0013
#020341:0000000000230000
#020370:0000000000130000
#020390:00000023
#020341:00000013
#020361:0000000000000023
#020390:0000000000000013
#0213b0:33230000
#021321:13230000
#0233b1:13
#023381:0053230000000000
#023320:13
#023350:0053230000000000
#024320:0000000000000013
#025360:53
#025320:0023000000000000
#027360:0000001200000000
#027340:0000000000220000
#0273a1:0000000000120000
#027381:0000000000000022
#027340:0000000000000012
#028320:0022000000000000
#0293b0:13230000
#029351:00132300
#030321:00132300
#0303b0:00001323
#033320:13
#033350:00530000230000000000000000000000
#0333b1:13
#033381:00530000230000000000000000000000
#041351:0000000000000013
#042321:53
#042351:0023000000000000
#041380:0000000000000013
#0423b0:53
#042380:0023000000000000
#042350:0000001300000000
#042320:0000000000230000
#042381:0000000000130000
#0423b1:0000000000000023
#044351:00000000000000000000001300000000
#044321:0000000000000023
#046371:13
#0463b1:0053000000000000
#046381:00230000
#046350:00130000
#046320:0000005300000000
#046360:0023
#047320:00130000
#047360:0023
#049360:00130000
#049340:00000000003300002300000000000000
#049350:0000003300000000
#049330:00000000000000330000000000000000
#050320:13230000
#050360:0053000000000000
#0503b1:00132300
#050371:0000005300000000
#051361:00130000
#051321:0023
#0623b1:12
#0623c1:00220000
#062330:12
#062320:00220000
#063380:16260000
#063321:00162600
#063380:00001525
#063331:00000015
#064331:25
#064380:14240000
#064341:00142400
#064380:0000000013230000
#0693b0:00130000
#069370:0023
#0703b0:13
#070380:00530000230000000000000000000000
#070320:0000001300000000
#070350:00000000000000530000230000000000
#071320:00130000
#071360:0023
#077380:0000000000000013
#0773b0:00000000000000000000000000000053
#0783b0:00530000000000000000000000000000
#078380:0023000000000000
#077351:0000000000000013
#077321:00000000000000000000000000000053
#078321:00530000000000000000000000000000
#078351:0023000000000000
#078361:0000001200000000
#078321:0000000000220000
#0783c1:0000000000000012
#079381:0022000000000000
#078360:0000000000000012
#079320:0022000000000000
#081320:14
#082340:54
#082320:000000000000000000000000545454545454240000000000
#082330:000000000000000000000000000000000000000000000000005400540054005400540054000000000000000000000000
#082381:14
#0823a1:000000000000000000000000545454545454240000000000
#082391:000000000000000000000000000000000000000000000000005400540054005400540054000000000000000000000000
#083351:13
#083321:00230000
#083380:13
#0833b0:00230000
#085360:0013
#085320:00000023
#086370:0000001300000000
#0863b0:0000000000230000
#087360:00130000
#087320:0023
#0883b0:0000000000130023
#088380:00000053
#088321:0000000000130023
#088351:00000053
#089371:00130000
#0893b1:0023
#090361:0000001300000000
#090321:0000000000230000
#091371:00130000
#0913b1:0023
#009920:0013000000000000
#009960:00230000
#009960:0000001300000000
#009920:0023
#009920:0000000000130000
#009960:00000023
#009960:0000000000000013
#010920:23
#010920:0013000000000000
#010960:00230000
#0379b0:0013000000000000
#037990:00230000
#037920:0000001300000000
#037940:0023
#0379a0:0000000000130000
#037980:00000023
#037930:0000000000000013
#038950:23
#038990:0013000000000000
#038970:00230000
#039960:0013000000000000
#039940:00230000
#039980:0000001300000000
#0399a0:0023
#039950:0000000000130000
#039930:00000023
#039990:0000000000000013
#0409b0:23
#040940:0013000000000000
#040920:00230000
