This file was generated by Ched 2.7.0.0.
#TITLE ""
#ARTIST ""
#DESIGNER ""
#DIFFICULTY 0
#PLAYLEVEL
#SONGID ""
#WAVE ""
#WAVEOFFSET 0
#JACKET ""
#REQUEST "ticks_per_beat 480"
#00002: 4
#BPM01: 151
#BPM02: 136
#BPM03: 121
#BPM04: 106
#BPM05: 91
#BPM06: 76
#BPM07: 61
#BPM08: 23
#00008: 01
#06408: 0600070008010000
#06308: 02030405
#TIL00: ""
#VOLUME: ""
#HISPEED 00
#MEASUREHS 00
#0011b:13131313
#01318:00000013
#01312:0000001300000000
#01315:0000000000000013
#0311b:0000001300000013
#03112:13000013
#03118:0013000000130000
#03115:00131300
#03212:0000000000130000
#03215:0013000000000013
#03218:0000001300001300
#0341b:00130000
#03415:0013000000001300
#03418:1300000000130000
#03412:0000001300000000
#03315:0000000000000013
#0331b:00231300
#03312:0000230000130000
#03318:00000013
#03518:00130013
#03515:0013000000000013
#0351b:0000001300130000
#03512:13
#01718:23130000
#01712:00130000
#02318:00001313
#0231b:0000000000000013
#02315:1300000000130013
#02418:0013000000130000
#02415:0000001300001300
#02412:0013000000000000
#0241b:0000001300000013
#02815:0000130000130013
#02818:0000001300001300
#0271b:00130000
#02715:0013000000000000
#02718:13
#02518:0000001300130000
#02515:00130013
#0251b:0000000000000013
#02512:0013
#01415:00000013
#01418:0000001300000013
#0791b:0000001300000000
#07915:0013
#07918:0000000000130013
#07912:00000013
#08318:0000000000130013
#08315:00001313
#08312:00130000
#0831b:00130000
#0431b:0000001300000000
#04318:0000000013000013
#04315:0000000000130000
#04312:00000013
#04412:0000001300000000
#04418:0023000000000013
#04415:2300230000130000
#0441b:0000002300000000
#05818:0014001400001400
#05814:14140000
#05812:0000000000140014
#05618:00000014
#05614:0000000000000014
#05612:0000001400000000
#05616:0014000000000000
#0571a:14001414
#05714:0000000000140000
#05712:00240000
#02612:1300000000000013
#0261b:0000001300000000
#02615:0000130000130000
#02618:0013000000001300
#0741a:5400001400000024
#07414:0014000000000000
#07416:00002424
#07412:0000540000240000
#07413:00000054000000000000000000000000
#03018:00130000
#03012:0013000000000000
#03015:0013
#0301b:00000013
#03612:2300001400000000
#0361a:0000002400000000
#03618:0023000000000000
#03615:00230000
#05412:0014
#0541a:00000014
#05414:0014000000000000
#05418:00140000
#0551a:0000000000000014
#05512:13000013
#05518:0013000000130000
#05515:00131300
#0551b:0000001300000000
#0591a:14140000
#05912:0014001400000000
#05918:00001414
#05914:0000000000140014
#0591f:11
#07718:00000013
#07715:00130000
#0771a:14
#08418:0000000000130013
#08415:00000013
#08412:24242400
#0841a:0024002400000000
#0851b:00130000
#08512:00130000
#08515:2300000000000013
#0871b:0000000000130013
#08715:00000013
#08718:13
#08812:00131300
#08815:13
#08818:0013001300000000
#0881b:0000000000130000
#08915:0013000000130013
#08918:00000013
#09012:0013000000000000
#09018:0000130000130000
#09015:0000001300001300
#0901b:1300000000000013
#09112:1300000000000013
#09115:0000000000130000
#09118:00000013
#04512:0013
#0451b:0013
#04518:00000013
#04515:0000230000000013
#04612:0013
#04618:1300000000000013
#0461b:0013
#04615:00000013
#04818:13131313
#04815:0013001300130000
#0021b:13131300
#00218:00000013
#00315:13131313
#00412:13131313
#00515:13131313
#00618:13131313
#0071b:13131313
#0081b:13
#00818:0013000013000000
#00812:00130000
#00815:0000001300000000
#0151b:00000013
#01512:0000001300000013
#01515:0000000000130000
#01518:0013
#0161b:0000000000130000
#01612:0000000000000013
#01618:23230000
#01615:0023002300000000
#0181b:13
#01912:13
#0211b:1313
#02115:1300000000130000
#02118:00230013
#02112:0000230000000013
#02110:41
#0221b:13
#02215:0013000000001300
#02218:0000130000130013
#02212:0000001300000000
#0381a:0000001400000014
#03812:5454000014000000
#03818:0000000000140000
#03814:00540014
#03813:00000054000000000000000000000000
#03912:14
#0391a:0014000054540000
#03919:00000054000000540000005400000054
#03918:0000545400005454
#04012:0000001400000014
#0401a:5454000014000000
#04014:0000000000140000
#04018:00540014
#04019:00000054000000000000000000000000
#04115:00000013
#04118:0000001300000000
#0411b:0000000000000013
#04212:0000001300000000
#04215:0000000000130000
#04218:0000001300000000
#0421b:0000000000130000
#0491b:1313
#04918:00130013
#04912:1300001300000013
#04915:0000000000130000
#04712:1313
#0471b:00130000
#0501b:1313
#05012:00130000
#05115:13131313
#05118:0013001300130013
#05212:13000013
#05215:0013000013000013
#05218:0000130000130000
#0521b:0000001300000000
#05312:0014
#0531a:00000014
#05318:24
#05310:41
#08618:13130013
#08615:0013000000000013
#0761a:0000540000140000
#07612:5400001400000014
#07616:00001414
#07618:0014000000000000
#07619:00000054000000000000000000000000
#07812:00000013
#0781b:0000000000000013
#08015:13
#0801b:0013000000000000
#08014:0000002400240024
#08018:00002424
#0821a:14
#08212:24
#0291b:00130000
#02918:2313
#02915:00130000
#02912:0013
#0111a:0014000000000014
#01112:14
#01114:00140000
#01118:0000001400000000
#0121b:0000000000000013
#01212:1413
#01218:0014000000130000
#01214:00140000
#0121a:0000001400000000
#01215:00000013
#01012:0014
#01016:0000000000140014
#0101a:00000014
#06612:0000001400000024
#0661a:00005454540000002400000000000000
#06614:0000000000240000
#06618:54000024
#06610:41
#0671a:14
#06712:00001454540000000000545454000000
#06714:00000000000054545400000000005454
#0681a:0000001400000014
#06812:00005454540000001400000000000000
#06818:0000000000140000
#06814:54000014
#06912:1400000000140000
#06916:0014000000000000
#0691a:00140000
#0701a:14
#07014:00140000
#07018:0000001400000000
#07012:0000000000140014
#07016:00000014
#0711a:14140000
#07116:0014000000000000
#07115:00000013
#07118:0000000000000013
#07312:0014000000005400
#0731a:2400001400000000
#07314:0000540000140000
#07318:0000000054000014
#07313:00000054000000000000005400000000
#07319:00000000000000540000000000000054
#0751a:0014000000005400
#07512:2400001400000000
#07518:0000540000140000
#07514:0000000054000014
#07519:00000054000000000000005400000000
#07513:00000000000000540000000000000054
#0651a:00001454540000000000545454000000
#0651f:21
#06518:00000000000054545400000000005454
#03712:0014000054540000
#0371a:24
#03710:41
#03713:00000054000000540000005400000054
#03714:0000545400005454
#0611b:2323
#06112:2323
#06118:00230000
#06115:00000023
#0601a:24
#06012:0024000000000000
#06018:00240000
#06014:0000002400000000
#0621b:2300000000000023
#06212:2323
#06218:0000230000230000
#06215:00000023
#0921b:23
#09215:00230000
#09218:0023000000000000
#09212:0000002300000000
#08118:24
#08110:41
#00912:24
#00910:41
#07218:0024002600000000
#07212:00260000
#07214:24
#06312:26
#06313:00360000
#06314:0036
#06315:00000036
#06415:00360000
#06416:0000000000003434
#02019:0033000000330000
#02013:0033000000330000
#02014:0000003300000033
#0201a:0000003300000033
#02958:1353
#02955:00630013
#0295b:00630013
#02952:0053
#03352:00130000
#0335b:00130000
#05752:00140000
#01758:13
#02152:00130000
#02158:00130000
#0215b:63
#02155:63
#03058:00130000
#03055:0013
#0305b:00000013
#01458:0000005300000013
#0735a:14
#04555:00130000
#04658:53
#01352:0000005300000000
#01355:0000000000000063
#0185b:63
#01858:00130000
#01952:53
#01955:00130000
#02355:63
#02352:00130000
#0245b:0000000000000063
#0315b:0000000000000013
#03255:0013000000000000
#03258:0000001300000000
#0375a:14
#03952:14
#04252:0000005300000013
#04255:0000000000630000
#04258:0000005300000013
#0425b:0000000000630000
#04158:0000005300000000
#0415b:0000000000000063
#04752:5353
#0475b:00630000
#0505b:6363
#05052:00530000
#05358:14
#08858:0000000000000013
#0885b:0000000000630000
#07552:14
#0785b:0000000000000013
#08158:54
#0825a:64
#08252:54
#01152:14
#01156:00000014
#0695a:00640000
#06952:0000000000540000
#0715a:00640000
#0675a:14
#06555:16
#06352:56
#0093a0:1434000034340000
#009390:00000034000000340000003400000034
#009380:0000343400003434
#0103a0:3434000000000000
#010390:00000034000000000000000000000000
#010380:0000342400000000
#011320:0014
#011330:00000000000000000034000000000000
#011340:0000000000340000
#011350:00000000000000000000003400000000
#011360:00000024
#013320:0000001300000000
#013350:0000000000230000
#013350:0000000000000013
#014320:0023000000000000
#014380:0000001300000000
#0143b0:0000000000230000
#0173b0:0000000013000033
#017380:0000000000333300
#0183b0:33
#018380:00230000
#018320:0000000013000033
#018350:0000000000333300
#019320:33
#019350:00230000
#0193b0:0000000013000033
#019380:0000000000333300
#0203b0:3333
#020390:0033000000330000
#020380:00330033
#0203a0:0000003300000033
#0213b0:33
#021380:00230000
#020351:1333
#020331:0033000000330000
#020321:00330033
#020341:0000003300000033
#021351:33
#021321:00230000
#023351:13
#023321:00230000
#0243b1:0000000000000013
#025381:0023000000000000
#027351:0000001300000000
#027321:0000000000230000
#027381:0000000000000013
#0283b1:0023000000000000
#0293b1:00130023
#029381:0033
#029350:00130023
#029320:0033
#033320:13230000
#0333b1:13230000
#041381:0000001300000000
#0413b1:0000000000230000
#0413b1:0000000000000013
#042381:0023000000000000
#042321:0000001300000023
#042351:0000000000330000
#042380:0000001300000023
#0423b0:0000000000330000
#045350:13230000
#046380:13
#0463b0:00230000
#047320:13
#047350:00230000
#0473b1:00130000
#047381:0023
#047320:0013
#047350:00000023
#0503b0:13
#050380:00230000
#050321:00130000
#050351:0023
#0503b0:0013
#050380:00000023
#063320:16
#063330:00360000
#063340:0036
#063350:00000036
#064350:36360000
#064360:0000000034343434
#065350:26
#0693a0:00140000
#069360:0024
#069320:0000000000140000
#069360:0000000000000024
#0713a0:00140000
#071360:0024
#077380:0000001300000000
#0773b0:0000000000230000
#077350:0000000000000013
#078320:0023000000000000
#0783b0:0000001300000000
#078380:0000000000230000
#081380:14
#0823a0:54
#082380:000000000000000000000000545454545454545454545454
#082390:000000000000000000000000000000000000000000000000005400540054005400540054005400540054005400540054
#083380:24
#082321:14
#082341:000000000000000000000000545454545454545454545454
#082331:000000000000000000000000000000000000000000000000005400540054005400540054005400540054005400540054
#083341:24
#085381:0013
#0853b1:00000023
#086351:0000001300000000
#086321:0000000000230000
#087321:00130000
#087351:0023
#0883b1:0000000000130000
#088381:0000000000000023
#089381:00130000
#0893b1:0023
#091381:00130000
#0913b1:0023
#037920:0014000054540000
#037940:0000545400005454
#038920:5454000000000000
#038940:00240000
#0399a0:0014000054540000
#039980:0000545400005454
#0409a0:5454000000000000
#040980:00240000
#0659a0:0014540000545400
#065980:0000005454000054
#066980:54
#0669a0:0054240000000000
#067920:0014540000545400
#067940:0000005454000054
#068940:54
#068920:0054240000000000
#073920:0014000000000000
#073940:00240000
#0739a0:0000001400000000
#073980:0024
#073940:0000000000140000
#073920:00000024
#073980:0000000000000014
#0749a0:24
#074940:0014000000000000
#074920:00240000
#0759a0:0014000000000000
#075980:00240000
#075920:0000001400000000
#075940:0024
#075980:0000000000140000
#0759a0:00000024
#075940:0000000000000014
#076920:24
#076980:0014000000000000
#0769a0:00240000
