This file was generated by Ched 2.7.0.0.
#TITLE ""
#ARTIST ""
#DESIGNER ""
#DIFFICULTY 0
#PLAYLEVEL
#SONGID ""
#WAVE ""
#WAVEOFFSET 0
#JACKET ""
#REQUEST "ticks_per_beat 480"
#00002: 4
#BPM01: 151
#BPM02: 136
#BPM03: 121
#BPM04: 106
#BPM05: 91
#BPM06: 76
#BPM07: 61
#BPM08: 23
#00008: 01
#06408: 0600070008010000
#06308: 02030405
#TIL00: ""
#VOLUME: ""
#HISPEED 00
#MEASUREHS 00
#05812:00140000
#05814:00000014
#05818:14
#0581a:0014
#05614:00000014
#0571a:0014
#05718:14
#05714:00000014
#05712:00240000
#05416:0014
#0541a:00000014
#05412:00140000
#0591a:14000014
#05916:00140000
#05912:0014
#0591f:11
#03912:14
#03918:00140000
#03914:0014
#0391a:00000014
#05312:0014
#0531a:24000014
#05310:41
#07012:14
#07018:00140000
#0701a:00000014
#07014:0014
#0691a:0014
#06916:00000014
#06918:14
#06912:00140000
#07112:14
#07116:00140014
#0711a:0014
#0011a:1414
#0021a:1414
#00312:1414
#00412:1414
#00518:1414
#00618:1414
#00714:1414
#00814:1414
#00914:00140014
#0091a:2414
#00910:41
#01018:1414
#01012:00140014
#0111a:1414
#01114:00140014
#01218:1414
#01212:00140014
#0131a:14
#01314:00140000
#01318:0014
#01312:00000014
#0141a:0014
#01414:00000014
#01418:14
#01412:00140000
#0151a:14
#01514:00140000
#01518:0014
#01512:00000014
#0161a:0014
#01614:00000014
#01618:14
#01612:00140000
#0171a:14140000
#01712:0000000000343434
#01812:00140000
#0181a:0000000000343434
#0191a:00140000
#01912:0000000000343434
#0201a:00140014
#02012:0014
#08218:14
#02118:0014
#02114:00000014
#02112:00240000
#02110:41
#02218:14
#02214:00140000
#02212:00000014
#0221a:0014
#02314:0014
#02318:00000014
#02414:14
#02418:00140000
#02412:0014
#02612:00000014
#02718:14
#02714:00140014
#0271a:0014
#02818:14
#02812:00140000
#02918:0014
#02912:00140000
#0291a:14
#02914:00000014
#03012:00140000
#03018:0014
#03014:00000014
#0301a:14
#03318:0014
#03314:00240014
#0341a:14
#03412:00140000
#03418:0014
#03414:00000014
#03714:00140000
#03718:0014
#03712:00000014
#0371a:24
#03710:41
#03816:14
#0381a:00140014
#03812:0014
#04016:14
#04012:00140014
#0401a:0014
#04118:14
#04114:00140000
#0411a:0014
#04112:00000014
#0431a:1414
#04312:00140000
#04316:00000014
#04218:14
#04214:00140000
#0421a:0014
#04212:00000014
#04412:14000014
#04416:00140000
#0441a:0014
#04514:0014
#04518:00000014
#0451a:00240000
#04618:0014
#04614:00000014
#0491a:14
#04918:00140000
#04916:0014
#04914:00000014
#05012:14
#05014:00140000
#05016:0014
#05018:00000014
#0511a:14
#05116:00140014
#05112:0014
#0521a:14
#05216:00140014
#05212:0014
#05512:14
#05518:00140000
#05514:0014
#08312:00140000
#08318:0014
#08314:00000014
#06512:00140000
#06516:0014
#0651a:00000014
#06518:26
#0651f:21
#06614:14
#0661a:00140000
#06612:0014
#06618:00000014
#06610:41
#06714:14
#0671a:00140000
#06716:0014
#06712:00000014
#06818:14
#06812:00140000
#0681a:0014
#06814:00000014
#07612:00000014
#07614:0014
#07616:00140000
#07618:14
#0751a:00000014
#07514:0014
#07518:00140000
#07512:14
#0741a:00000014
#07418:0014
#07416:00140000
#07414:14
#07312:00000014
#07318:0014
#07314:00140000
#0731a:24
#0771a:1414
#07714:00140000
#07716:00000014
#07812:1414
#07818:00140000
#07816:00000014
#0791a:1414
#07914:00140000
#07916:00000014
#08012:1424
#08018:00140000
#08016:00000024
#08514:0014
#0851a:00000014
#08612:1414
#08618:00140000
#08616:00000014
#0871a:14
#08714:00140000
#08718:0014
#08712:00000014
#0881a:14
#08816:00140000
#08812:0014
#08818:00000014
#0891a:00140014
#08912:0014
#08914:14
#09016:14
#09012:00140014
#0901a:0014
#09118:14
#09114:00140000
#0911a:0014
#09112:00000014
#03614:00140000
#03618:0000001400000000
#08412:24242400
#0841a:24242400
#0811a:24
#08110:41
#09214:0024002400000000
#09218:24240000
#06012:24
#06018:00240000
#06014:0000002400000000
#07212:24240000
#0721a:0024002400000000
#06418:36
#0641a:0000000000003434
#06318:0036
#05752:00140000
#0455a:00140000
#0375a:14
#03952:14
#0535a:14
#06558:16
#08258:54
#0815a:64
#02152:00140000
#0235a:00140000
#03354:00140000
#06754:14
#0735a:14
#017340:0014
#017320:0000000000343434
#018320:24
#018380:0014
#0183a0:0000000000343434
#0193a0:24
#019340:0014
#019320:0000000000343434
#020320:24
#021320:14240000
#0233a0:14240000
#0243a0:0000000000001434
#025380:0034340000003400
#0253a0:0034
#0263a0:3424
#026380:00340000
#0313a0:1434
#031380:0000340000003434
#0323a0:0034000000000000
#032380:0000003400002400
#033340:14240000
#0353a0:14340000
#035380:00000034
#036380:24
#0453a0:14240000
#046320:14240000
#0473a0:1434
#047370:00340024
#048320:1434
#048350:00340024
#0553a0:0000000000001434
#056370:0034000000000000
#0563a0:0000002400000000
#0613a0:1424
#062320:1424
#063380:1636
#064380:36
#0643a0:0000000034343434
#065380:26
#0813a0:14
#082380:54
#0833a0:24
#0853a0:14240000
