This file was generated by Ched 2.7.0.0.
#TITLE ""
#ARTIST ""
#DESIGNER ""
#DIFFICULTY 0
#PLAYLEVEL
#SONGID ""
#WAVE ""
#WAVEOFFSET 0
#JACKET ""
#REQUEST "ticks_per_beat 480"
#00002: 4
#BPM01: 140
#00008: 01
#TIL00: ""
#VOLUME: ""
#HISPEED 00
#MEASUREHS 00
#0331b:1313
#03317:0013000000001300
#03312:23130013
#03316:0000001300000013
#03319:0000000000130000
#0331f:21
#03419:0013000000130000
#0341b:00131300
#03414:0000001300000013
#03417:13000013
#03416:00130000
#03412:00001313
#03410:41
#0351b:1313
#03512:00130013
#03519:0000000000000013
#03516:13
#03616:0013000000000000
#03617:0000001300000000
#03618:0000000000130000
#03615:0000000000130000
#03612:23231300
#0361b:23231300
#03816:1313
#0381b:13001313
#03814:0013000000000000
#03812:00130000
#03819:0000001300000000
#03817:00130000
#06718:00130013000000000000000000130000
#06715:1313000000001300
#06712:00000000000013001300000000000013
#0671b:00000000000000130013000000000013
#02415:00000013000013000000001300000000
#02418:00131313
#0241b:2300000000130000
#02412:0000000023000013
#0241f:11
#02516:0012001200000000
#02515:0012
#02519:00000000000000000012000000000000
#02518:00000000120000000000001200000000
#02513:00000012
#02514:0000000000120000
#0251a:00000000000000120000000000000000
#0251b:23
#02718:0012000000120000
#02716:00000012000000005200000000000000
#02713:00000000001200000000000000000000
#0271a:00120000
#02715:23000000000000520000000000000000
#02714:0000005200000000
#02815:0013000000130000
#02818:0000130000000013
#0281b:0000001300000000
#02812:2313
#0291b:13000000000000130000000000000000
#02918:00001300001300000000130000001300
#02915:00131313
#02912:0000001300000000
#03012:1300000000130000
#0301b:1300001300000013
#03018:00000013000000000000000000000000
#03015:00000000130000130000000000000000
#03118:13000000000000130000000000000000
#0311b:00001300130000000013000000000000
#03115:00130000000013001300000000000000
#03112:0000130000130000
#0001c:12
#0001b:0012120000000000
#0001a:0000001212000000
#00019:0000000000121200
#00017:00000012000000000000000000000000
#00016:00000000000000120000000000000000
#00015:00000000000000000000001200000000
#00018:0000000000000012
#00014:12000000000000000000000000000012
#00115:0012000000000000
#00117:00120000
#00119:0000001200000000
#00116:0000000012121200
#00118:12000000000000000012001200000000
#0011a:0000000000000012
#00319:0012000000000000
#00317:00120000
#00315:0000001200000000
#00313:00000012
#00318:0012
#00316:12
#00414:0013000000000000
#00417:1300000013000013
#00416:00130000
#00419:0000001300000000
#00412:23002313
#0041b:00000000230000000000003300000000
#00410:41
#0051b:1300130000130000
#00518:0013000013005300
#00515:00000013000013000000130000000000
#00512:13001353
#0051a:000053
#00519:000000000000000000000000000000000053000000000000
#00514:000053
#00513:000000000000000000000000000000000053000000000000
#00716:0014001400001200
#00718:00000000000000000000001200001200
#00712:2424
#0071a:00240000
#00812:00000013
#0081b:00000013
#00818:00000000000000000000000000000013
#00815:0000000000000013
#00912:13001313
#0091b:00130013
#00916:0014001400140000
#0101b:0013000000001300
#01019:00130000
#01017:0000001300000013
#01016:0000000000130000
#01012:0013
#0111b:1300001313000013
#01116:13000000000000130000000000000000
#01112:0013130000131300
#01117:00000013000000000000001300000000
#01512:1300001313131313
#01517:13000000000000130000000023000000
#0151b:0013130000230000
#01516:00000013000000000000000000000000
#01519:0000000000000023
#01612:13000000001300000000000000000000
#01615:00001300000000130000000000000000
#0161b:23130000
#01618:0000001300000000
#01616:0000000000130000
#01617:0000000000000013
#0171b:1313
#01715:0013130013000000
#01718:00000013000013000000130000000000
#01712:0000001300130013
#01717:0000000000000013
#01812:0000001300001300
#0181b:0013000013000013
#01815:0000000000130000
#01818:00000000000000000000001300000000
#01912:13130013
#01917:13000000001300000000000000000000
#0191b:0013000000130000
#01916:0013000013000000
#01914:0000001300000000
#01919:00000000000000130000000000000000
#02117:00000013
#0211b:0000130000130000
#02112:13001313
#02017:00000000000000000000000000000013
#0201b:1313
#02016:13
#02012:00130013
#02010:41
#02218:0013000000000000
#02215:00130000
#0221b:0000001300001300
#02212:0013
#02214:0000000000130000
#02219:0000000000000013
#02217:0013
#02216:00000013
#02312:13000013
#02318:0000000013000013
#02315:00000000000000000013000000000013
#0231b:0000000000131300
#02317:13
#00619:0013000000000000
#00616:1313
#00617:00130000
#00614:0000001300000000
#00618:0000000000000013
#0061b:23002313
#00612:00000000230000000000003300000000
#0121b:00000013
#01215:00000000000000000000000000130000
#01212:00000000000000000000000000000013
#01218:0000000000000013
#01210:41
#0131b:13001313
#01312:00130013
#01316:0014001400140000
#01412:00001300000000000000001300000000
#01414:00130000
#01416:0000001300000000
#01419:0000000000000013
#0141b:00001313
#01415:00000000000000000013000000000000
#01418:0000000000130000
#02618:00000013000013000000001300000013
#02615:00131313
#02612:2300000000130013
#0261b:13000000000000002300000000130000
#03215:00130013001300130000000000000000
#03218:1313131313000000
#03712:1313
#03716:0013000000130000
#0371b:23130013
#03717:0000001300000000
#06518:1212120000000000
#06513:00000012000000000000000000000000
#06519:0000001212000000
#06514:00000000000000120000000000000000
#0651a:0000000000121200
#06515:00000000000000000000001200000000
#0651b:0000000000000012
#06516:00000000000000000000000000000012
#06512:12
#00212:12
#00213:0012120000000000
#00214:0000001212000000
#00215:0000000000121200
#00217:00000012000000000000000000000000
#00218:00000000000000120000000000000000
#00219:00000000000000000000001200000000
#00216:0000000000000012
#0021a:12000000000000000000000000000012
#0661b:12000012000000000000000000000000
#06616:0012120000000000
#06615:0000001212000000
#0661a:00000000000000120000000000000000
#06614:0000000000121200
#06619:00000000000000000000001200000000
#06613:0000000000000012
#06618:00000000000000000000000000000012
#05815:0013000000130000
#0581b:23132313
#05812:13231323
#05818:0000001300000013
#06117:1313
#06112:1313
#06418:0013000000000000
#06412:23132300
#0641b:13231300
#06415:0000001300000000
#04214:0013000000130000
#04212:00131300
#04219:0000001300000013
#04216:13000013
#04217:00130000
#0421b:13001313
#04312:1313
#0431b:00130013
#04314:0000000000000013
#04317:13
#04417:0013000000000000
#04416:0000001300000000
#04412:23231300
#04415:0000000000130000
#0441b:23231300
#04418:0000000000130000
#04617:1313
#04612:00001313
#04619:0013000000000000
#0461b:00130000
#04614:0000001300000000
#04616:00130000
#04716:1313
#0471b:1300130013000013
#04712:0000000000130000
#04718:00000000000000000000001300000000
#04715:00000013
#04815:0013000000000000
#04818:00130000
#0481b:0000001300001300
#04819:0000000000000013
#04817:0013
#04812:1313
#04814:0000000000130000
#04816:00000013
#05717:1300000000000000000000000000001300000000000000000000000000000000
#05712:2300000000000000000000000000001300000000000000000000000000000000
#05716:00000013000000000000000000000000
#0571b:00000023000000000000000000000000
#05710:41
#0451b:1313
#04517:0013000000130000
#04512:23130013
#04516:0000001300000013
#05916:1300000000000000000000000000001300000000000000000000000000000000
#0591b:2300000000000000000000000000001300000000000000000000000000000000
#05917:00000013000000000000000000000000
#05912:00000023000000000000000000000000
#06018:0013000000130000
#06012:23132313
#0601b:13231323
#06015:0000001300000013
#06215:0013000000130000
#0621b:23132313
#06212:13231323
#06218:0000001300000013
#06316:1313
#0631b:1313
#04112:00132300
#0411b:23000013
#04116:23
#04117:0023
#04916:0013000000130000
#04917:23130013
#0491b:0000001300000013
#04912:2313
#04910:41
#05012:13
#05015:0013000000000000
#05018:00130000
#0501b:0000001300000000
#05017:0000000000130000
#05016:0000000000000013
#05112:1300000013000013
#0511b:00130013
#05117:0000000000000013
#05218:0013000000000000
#05212:2300001300130000
#05216:0013
#0521b:23231300
#05217:0000000000130000
#05215:00230000
#05417:0013
#05412:00131313
#05418:0013000000000000
#0541b:13130000
#05415:0000001300000000
#05516:1313
#0551b:1300130013000013
#05512:0000000000130000
#05518:00000000000000000000001300000000
#05515:00000013
#05615:0013000000000000
#05618:00130000
#0561b:0000001300001300
#05619:0000000000000013
#05617:0013
#05612:1313
#05614:0000000000130000
#05616:00000013
#03917:1313
#03912:1300130013000013
#0391b:0000000000130000
#03915:00000000000000000000001300000000
#03918:00000013
#04018:0013000000000000
#04015:00130000
#04012:0000001300001300
#04014:0000000000000013
#04016:0013
#0401b:1313
#04019:0000000000130000
#04017:00000013
#05317:0013000000130000
#05316:23130013
#05312:0000001300000013
#0531b:2313
#06815:0000000000000000000000005356000000000000000000000000000000000000
#06818:0000005300000000
#06814:00000000000000560000000000000000
#06813:0000000000000000000000000000005600000000000000000000000000000000
#06812:0056
#0335b:53
#03357:0023000000000000
#03352:00630063
#03356:0000002300000023
#0355b:5353
#03552:00630000
#03658:0000000000230000
#03655:0000000000230000
#0365b:0053
#03652:0053
#0385b:00000013
#03852:00000013
#03856:0053
#0675b:00000000000000000000000000000053
#06752:00000000000000000000000000000063
#00358:0062
#00353:00000012
#0035b:00000012
#00457:0053
#00752:1414
#0075a:00140000
#0095b:00000053
#0175b:0013
#01752:0000000000130053
#01956:0013
#0195b:0000000000130000
#01952:00000013
#02157:00000053
#02152:53000053
#0215b:00630000
#02352:63
#02357:63
#01352:00000063
#0115b:13
#0185b:0063000000000000
#0205b:6363
#02052:00530000
#0255b:13
#02755:13
#03752:6363
#03756:0023000000230000
#0375b:00530013
#03757:0000002300000000
#00656:0063
#01552:13
#02652:13
#03258:0013
#03152:0000000000130000
#06157:5353
#06152:5353
#0615b:00130013
#06156:00130013
#0645b:0053
#06452:0053
#06455:00000013
#06458:00000013
#04352:6363
#0435b:00530000
#04452:0063
#04455:0000000000230000
#0445b:0053
#04458:0000000000230000
#04657:0063
#04652:00000013
#0465b:00000013
#04756:53
#0475b:00130000
#04752:00130000
#0455b:5353
#04557:0023000000230000
#04552:00630063
#04556:0000002300000023
#05752:0000000000000000000000000000002300000000000000000000000000000000
#05757:0000000000000000000000000000002300000000000000000000000000000000
#05756:00000053000000000000000000000000
#0575b:00000053000000000000000000000000
#0595b:0000000000000000000000000000002300000000000000000000000000000000
#05956:0000000000000000000000000000002300000000000000000000000000000000
#05957:00000063000000000000000000000000
#05952:00000063000000000000000000000000
#06356:6363
#0635b:6363
#06352:00130013
#06357:00130013
#04152:00135300
#0415b:63000013
#04157:00130000
#04156:00000013
#04952:5353
#04956:0023000000230000
#0495b:0000002300000023
#04957:00530053
#05152:5353
#0515b:00530000
#05256:0053
#05252:0000000000230000
#0525b:0053
#05257:0000000000230000
#05457:0063
#05452:00000013
#0545b:00000013
#05556:53
#0555b:00130000
#05552:00130000
#03957:63
#03952:00130000
#0395b:00130000
#05357:0023000000230000
#05356:00630063
#05352:0000002300000023
#0535b:6363
#003380:0012
#0033b0:00000022
#004370:0013
#0043b0:00000000000000000000003323000000
#006360:0013
#006320:00000000000000000000003323000000
#0083b0:1323000000000000
#008361:1323000000000000
#008391:0000132300000000
#008340:0000132300000000
#008370:0000000013230000
#008321:0000000013230000
#0093b1:00000013
#010371:23
#010320:1300002300000000
#0103b0:0000000013230000
#010320:0000000000001323
#012320:1323000000000000
#012371:1323000000000000
#012341:0000132300000000
#012390:0000132300000000
#012360:0000000013230000
#0123b1:0000000013230000
#013321:00000013
#014361:23
#0143b0:1300002300000000
#0163b0:00001323
#016321:00000013
#017321:23
#017321:0000000000000013
#018361:0023000000000000
#0183b0:0013000000000000
#018370:0000002300000000
#0203b0:13
#020370:00230000
#020321:00130000
#020361:0023
#0203b0:0013
#020370:00000023
#021320:13
#021360:00230000
#0213b1:00130000
#021371:0023
#021371:00000013
#0223b1:23
#021320:00000013
#022360:23
#023320:13
#023360:0000002300000000
#023371:13
#0233b1:0000002300000000
#027361:00000000000000000000001200002200
#028381:00001323
#028350:00000013
#029350:23
#030380:00001323
#030351:00000013
#031351:23
#0333b1:13230000
#033371:0053000000000000
#033320:00132300
#033360:0000005300000000
#033320:00000013
#033360:0000000000000053
#034320:23
#0353b0:13
#035370:00230000
#035321:00130000
#035361:0023
#0353b0:0013
#035370:00000023
#0363b0:00001323
#036380:0000000000530000
#036321:00001323
#036351:0000000000530000
#037321:13230000
#037361:0053000000000000
#0373b0:00132300
#037370:0000005300000000
#037321:00001323
#037361:0000000000530000
#038361:0013
#038321:00000023
#039371:13
#0393b1:00230000
#0413b1:13
#041371:00230000
#041321:0013
#041361:00000023
#043321:13
#043361:00230000
#0433b0:00130000
#043370:0023
#043321:0013
#043361:00000023
#044321:00001323
#044351:0000000000530000
#0443b0:00001323
#044380:0000000000530000
#0453b0:13230000
#045370:0053000000000000
#045321:00132300
#045361:0000005300000000
#0453b0:00001323
#045370:0000000000530000
#045321:00000013
#045361:0000000000000053
#046321:23
#046371:0013
#0463b1:00000023
#047361:13
#047321:00230000
#049321:13230000
#049361:0053000000000000
#049370:00132300
#0493b0:0000005300000000
#049321:00001323
#049361:0000000000530000
#049370:00000013
#0493b0:0000000000000053
#050370:23
#050320:00001323
#0503b1:00000013
#0513b1:23
#051320:13
#051360:00230000
#0513b1:00130000
#051371:0023
#051320:0013
#051360:00000023
#052360:00001323
#052320:0000000000530000
#0523b1:00001323
#052371:0000000000530000
#0533b1:13230000
#053371:0053000000000000
#053360:00132300
#053320:0000005300000000
#0533b1:00001323
#053371:0000000000530000
#053360:00000013
#053320:0000000000000053
#054360:23
#054370:0013
#0543b0:00000023
#055360:13
#055320:00230000
#057360:00000013000000000000000023000000
#057320:0000000000000000000000000000005300000000000000000000000000000000
#0573b1:00000013000000000000000023000000
#057371:0000000000000000000000000000005300000000000000000000000000000000
#059371:00000013000000000000000023000000
#0593b1:0000000000000000000000000000005300000000000000000000000000000000
#059320:00000013000000000000000023000000
#059360:0000000000000000000000000000005300000000000000000000000000000000
#061370:13
#0613b0:00230000
#061321:13
#061361:00230000
#061371:0013
#0613b1:00000023
#061320:0013
#061360:00000023
#063360:13
#063320:00230000
#0633b1:13
#063371:00230000
#063361:0013
#063321:00000023
#0633b0:0013
#063370:00000023
#064320:0013
#064350:00000023
#0643b1:0013
#064381:00000023
#0673b1:00000000000000000000000000000013
#068381:0000002300000000
#067320:00000000000000000000000000000013
#068350:0000002300000000
#0059b0:0000000000130000
#005980:00000023
#005951:0000000000130000
#005921:00000023
#027931:00000000001200000000000000000000
#027961:0022
#068951:0000000000000000000000001656000000000000000000000000000000000000
#068921:0026
