This file was generated by Ched 2.7.0.0.
#TITLE ""
#ARTIST ""
#DESIGNER ""
#DIFFICULTY 0
#PLAYLEVEL
#SONGID ""
#WAVE ""
#WAVEOFFSET 0
#JACKET ""
#REQUEST "ticks_per_beat 480"
#00002: 4
#BPM01: 140
#00008: 01
#TIL00: ""
#VOLUME: ""
#HISPEED 00
#MEASUREHS 00
#0011a:1414
#00114:00140014
#00218:14
#00214:0014
#00318:1414
#00312:00140000
#00412:2414
#00418:00140000
#00410:41
#0051a:1414
#00514:00140000
#00612:1414
#00618:00140000
#01614:1414
#01618:00140014
#01712:1414
#0171a:00140000
#0191a:14
#01912:00140000
#01918:0014
#01914:00000014
#0221a:14
#02214:00140000
#02218:0014
#02212:00000014
#02814:00140000
#02818:0014
#02812:00000014
#02914:00140000
#02918:0014
#0291a:14
#02912:00000014
#0301a:14
#03012:0014
#03212:14
#03214:00343434343434340000000000000000
#03312:00140000
#03318:0014
#03314:00000014
#0331a:24
#0331f:21
#03518:14
#03514:00140000
#0351a:0014
#03512:00000014
#0371a:00140000
#03714:0014
#03718:00000014
#03712:24
#0391a:14140000
#03912:00001414
#0401a:14
#04014:00140000
#04018:0014
#04012:00000014
#04112:00140000
#04118:0014
#04114:00000014
#0411a:24
#04318:14
#04314:00140000
#0431a:0014
#04312:00000014
#0451a:00140000
#04514:0014
#04518:00000014
#04512:24
#0471a:14140000
#04712:00001414
#0481a:14
#04814:00140000
#04818:0014
#04812:00000014
#05812:14
#05818:00140000
#05814:0014
#0581a:00000014
#0601a:14
#06014:00140000
#06018:0014
#06012:00000014
#0621a:14
#06214:00140000
#06218:0014
#06212:00000014
#0641a:14
#06414:00140000
#00018:14
#00014:0014
#0181a:14
#01812:00140000
#01818:0014
#01814:00000014
#0231a:14
#0571a:00000014000000000000000000000000
#05710:41
#05912:00000014000000000000000000000000
#04914:00140000
#04918:0014
#04912:00000014
#0491a:24
#04910:41
#05018:14140000
#05014:00001414
#05318:00140000
#05314:0014
#0531a:00000014
#05312:24
#0551a:14140000
#05512:00001414
#0561a:14
#05614:00140000
#05618:0014
#05612:00000014
#06714:54545454000000000000000000000014
#06718:00000000000054545454000000000000
#0241f:11
#02412:24
#0241a:0024
#0071a:2424
#00712:00240000
#0261a:24
#02612:0024
#0111a:24240000
#01112:00002424
#01512:24240000
#0151a:00002424
#00813:00340000
#00814:0034
#00919:00343400
#01013:00343400
#01219:00340000
#01218:0034
#01210:41
#01313:00343400
#01419:00343400
#02513:0034000000000000
#02514:00000000340034343434343400000000
#02719:0034000000000000
#02718:00000034343434343400340000000000
#03619:0034340000000000
#0361a:0000003400000000
#03813:0034340000000000
#03814:0000003400000000
#04419:0034340000000000
#0441a:0000003400000000
#04613:0034340000000000
#04614:0000003400000000
#06513:00340000
#06514:0034
#06619:00340000
#06618:0034
#05218:0034343400000000
#05413:0034340000000000
#05412:0000003400000000
#02010:41
#03410:41
#03252:64
#03254:0014
#03854:00000014
#04654:00000014
#06458:00000014
#06852:0014
#0075a:1414
#00752:00140000
#01752:0014
#0235a:54
#0575a:00000054000000000000000000000000
#05952:00000064000000000000000000000000
#05452:00000014
#06754:00000000000000000000000000000054
#008320:14
#008330:00340000
#008340:00003424
#0093a0:14
#009390:00343400
#009380:00000024
#010340:14
#010330:00343400
#010320:00000024
#0123a0:14
#012390:00340000
#012380:00003424
#013320:14
#013330:00343400
#013340:00000024
#014380:14
#014390:00343400
#0143a0:00000024
#0203a0:14000024
#020380:00343400
#021320:14000024
#021340:00343400
#0233a0:14
#023380:00000024
#025320:14
#025330:0034000000000000
#025340:00000000340034343434343424000000
#0273a0:14
#027390:0034000000000000
#027380:00000034343434343400343400000000
#028380:24
#031380:14
#0313a0:00000024
#032320:14
#032340:00343434343434342400000000000000
#0343a0:14
#034380:00240000
#034320:0014
#034340:00000024
#036380:14
#036390:0034340000000000
#0363a0:0000003424000000
#038320:14
#038330:0034340000000000
#038340:0000003434002400
#0423a0:14
#042380:00240000
#042320:0014
#042340:00000024
#044380:14
#044390:0034340000000000
#0443a0:0000003424000000
#046320:14
#046330:0034340000000000
#046340:0000003434002400
#051380:14
#0513a0:00240000
#051340:0014
#051320:00000024
#0523a0:14
#052380:0034343424000000
#054340:14
#054330:0034340000000000
#054320:0000003434002400
#0573a0:14000034000000000000000000000000
#057380:00000024
#059320:14000034000000000000000000000000
#059340:00000024
#0613a0:14
#061380:00240000
#061320:0014
#061340:00000024
#063380:14
#0633a0:00240000
#063340:0014
#063320:00000024
#064380:00001424
#065320:14
#065330:00340000
#065340:00003424
#0663a0:14
#066390:00340000
#066380:00003424
#067340:00000000000000000000000014340034
#068320:0024
#067940:14000024000000000000000000000000
#067980:00000000000014000024000000000000
