This file was generated by Ched 2.7.0.0.
#TITLE ""
#ARTIST ""
#DESIGNER ""
#DIFFICULTY 0
#PLAYLEVEL
#SONGID ""
#WAVE ""
#WAVEOFFSET 0
#JACKET ""
#REQUEST "ticks_per_beat 480"
#00002: 4
#BPM01: 192
#00008: 01
#TIL00: ""
#VOLUME: ""
#HISPEED 00
#MEASUREHS 00
#00218:00130000
#00215:0013
#0021b:00000013
#00212:23
#00312:13
#00315:00130000
#00318:0013
#0031b:00000013
#00518:0033333300001300
#0051b:13
#00515:0000000000130013
#00618:2300001300000000
#00615:0013000000000000
#00718:0000000000000013
#00815:13
#00818:0013000000000000
#00918:0000001300000000
#00915:0000000000000013
#01018:1300001300000000
#01012:0013000000000000
#01015:0000000000000013
#01118:1300001300000000
#01112:0013000000000013
#01115:0013
#0111b:0000000000130000
#01218:13
#01215:0013000000000000
#01312:0000001300000000
#0131b:0013
#01315:0000000000130013
#01318:00000013
#01415:0013000000000013
#0141b:0000001300000000
#01418:23
#01410:41
#01518:1300001300000000
#01512:0013000000000013
#01515:0013
#0151b:0000000000130000
#01618:1300000000000013
#01715:0000001300000000
#01718:0000000000000013
#01815:1300001300000000
#0181b:0013000000000000
#01818:0013
#01812:0000000000130000
#01912:0000000000000013
#0201b:0000001300000000
#02015:0000000000000013
#02118:0000001300000000
#02115:0013
#0211b:00000013
#02312:0013001300000000
#02318:00131300
#02515:0013001300000000
#0251b:00131300
#02718:0013001300000000
#02715:00131300
#02918:0014001400000000
#02914:00142400
#03012:00000013
#0301b:0000000000000013
#0301a:2424
#03014:00240000
#03115:1300130000000013
#03118:0013000000001300
#0311a:0000001400000000
#03112:0000000000130000
#0321b:13000013
#03215:00130000
#03218:0000001300000000
#03212:0000000013000013
#03318:1300130000000013
#03315:0013001300001300
#0331a:0014
#03412:23000013
#0341b:0000000000000013
#03418:00230000
#03418:00230000
#03515:1300130000000013
#03518:0013000000001300
#0351a:0000001400000000
#03512:0000000000130000
#0361b:13
#03615:0000130000000013
#03618:0000001300001300
#03612:0013
#03818:0000001300000000
#03812:0000001300000000
#0381b:00000013
#03815:00000013
#0381a:24
#03810:41
#03918:0013
#03915:0000000000130000
#0391b:0053000000001300
#03919:13
#03912:0000001300000000
#0391a:00530000000000000000000000000000
#0421b:00130000
#04215:2313
#04218:00000013
#04312:13
#04315:0000001300000000
#04412:00130000
#04418:0013
#04415:00000013
#0451b:13
#04518:0000001300000000
#0461b:00130000
#04615:0013
#04618:00000013
#04715:13
#04712:0000001300000000
#04818:13
#0481b:0000001300000000
#04810:41
#05018:00130013
#05015:0013
#0501b:0013
#0501f:11
#05012:23
#05112:13
#0511b:13
#05115:00131300
#05118:0000001300001300
#0521b:13
#05212:1313
#05215:00130013
#05218:0013
#05612:13
#0561b:13000023
#05615:00230000
#05618:0023
#0751b:13
#07518:0000001300000000
#07415:00130013
#07418:0013
#0741a:24
#07612:13
#07615:00130000
#07618:0013
#0761b:00000013
#07715:13000013
#07718:00130000
#07712:0013
#07912:13
#07915:0000001300000000
#07818:00130013
#07815:0013
#08215:0000130000000013
#08218:0000001300001300
#08212:2313
#0821b:2323000000130000
#08312:1313
#0831b:0013001300000000
#08315:00130013
#08318:0000000000130013
#00412:00000013
#00418:0013
#00415:00130000
#0041b:23
#0531b:13
#05312:13
#05318:00131300
#05315:0000001300001300
#05412:13
#0541b:1313
#05418:00130013
#05415:0013
#05512:13
#0551b:13
#05515:00131300
#05518:0000001300001300
#0581b:00000013
#05812:2400000024000013
#05818:00240000
#0581f:21
#05918:1300130000000013
#05915:0013000000001300
#05912:0000001400000000
#0591b:0000000000130000
#05910:41
#06012:13000013
#06018:00130000
#06015:0000001300000000
#0601b:0000000013000013
#06115:1300130000000013
#06118:0013001300001300
#06112:0014
#0621b:23000013
#06212:0000000000000013
#06215:00230000
#06215:00230000
#06318:1300130000000013
#06315:0013000000001300
#06312:0000001400000000
#0631b:0000000000130000
#06412:13
#06418:0000130000000013
#06415:0000001300001300
#0641b:0013
#06612:24000013
#0661b:0000000000000013
#06618:0024
#06715:1300130000000013
#06718:0013000000001300
#0671a:0000001400000000
#06712:0000000000130000
#0681b:13000013
#06815:00130000
#06818:0000001300000000
#06812:0000000013000013
#06918:1300130000000013
#06915:0013001300001300
#0691a:0014
#07012:23230013
#07012:00230000
#0701b:0000000000000013
#07018:00230000
#07018:00230000
#07115:1300130000000013
#07118:0013000000001300
#0711a:0000001400000000
#07112:0000000000130000
#0721b:13
#07215:0000130000000013
#07218:0000001300001300
#07212:0013
#08018:26
#08412:23
#03713:00240000
#03719:0024
#03712:00000024
#03718:24
#02212:2400002400002400
#02218:0024000024000024
#02614:2400002400002400
#02618:0024000024000000
#02610:41
#0281a:24000024
#02814:0024000000000024
#02812:0024
#02818:0000002400000000
#0411a:0024000000000000
#04112:0000002400000000
#04115:0000000000230000
#0411b:00000023
#04118:0000000000000023
#04912:24
#04916:0000002400000000
#0491a:00000024
#05718:23
#05712:23
#07314:00240000
#07318:0024
#07312:00000024
#0731a:24
#07310:41
#04012:00000024
#04016:0000002400000000
#0401a:24
#00118:0000000000230023
#00115:00000023
#00112:0054545454000000
#02414:2400002400002400
#0241a:0024000024000024
#06519:00240000
#06513:0024
#0651a:00000024
#06514:24
#00012:5454005454005454
#0385a:14
#08452:13
#00658:0000005300000000
#00752:0000000000130000
#00858:0053000000000000
#00958:0000005300000000
#0095b:0000000000130000
#01058:0000005300000000
#0145b:0000006300000000
#01658:0000000000000053
#0175b:0013000000000000
#01755:0000006300000000
#01752:0000000000130000
#01952:0000000000000053
#0205b:0000006300000000
#02055:0000000000000063
#02155:0013
#02358:0063
#0235b:00000013
#0255b:0053
#02558:00000013
#02755:0053
#02752:00000013
#02954:0014
#0315a:0000001400000000
#0335a:0014
#0355a:0000001400000000
#03758:14
#03753:00140000
#03759:0014
#03752:00000014
#04352:53000013
#04355:0000005300000000
#0455b:63000013
#04558:0000006300000000
#04755:63000013
#04752:0000006300000000
#04858:53000013
#0485b:0000005300000000
#04952:14
#04956:0000001400000000
#0495a:00000014
#0575b:0000001300000000
#05755:0000001300000000
#05758:63
#05752:63
#07354:00140000
#07358:0014
#07352:00000014
#0735a:14
#0745a:14
#0755b:63
#07558:0000006300000000
#07852:13
#07952:53
#07955:0000005300000000
#0055b:53
#03458:00530000
#05952:0000001400000000
#06152:0014
#06352:0000001400000000
#06559:00140000
#06553:0014
#0655a:00000014
#06554:14
#06255:00630000
#06654:00140000
#06658:0014
#06652:54
#0675a:0000001400000000
#0695a:0014
#0715a:0000001400000000
#07052:00530000
#07058:00530000
#07755:00000063
#07752:0053
#05158:00000013
#05355:00000013
#0305a:1414
#03054:00140000
#05852:1414
#05858:00140000
#0053b0:13
#005380:0033333323000000
#006380:0000001300000000
#0063b0:0000000000230000
#006350:0000000000000013
#007320:0033000000230000
#007350:0000003300000000
#008380:0013000000000000
#0083b0:0000002300000000
#008320:0000000000130000
#008350:0000000000000033
#009320:0023000000000000
#009380:0000001300000000
#0093b0:0000000000230000
#010380:0000001300000000
#0103b0:0000000000230000
#012380:0000001300000033
#0123b0:0000000000330000
#0133b0:0023000000000000
#0143b0:0000001300000000
#014380:0000000000230000
#016350:0013000000230000
#016320:0000003300000000
#016380:0000000000000013
#0173b0:0023000000000000
#017350:0000001300000000
#017320:0000000000230000
#0183b0:0000000000000013
#019380:0033000000230000
#0193b0:0000003300000000
#019320:0000000000000013
#020350:0023000000000000
#0203b0:0000001300000000
#020380:0000000000230000
#020350:0000000000000013
#021320:0023000000000000
#023380:0013
#0233b0:00000023
#0253b0:0013
#025380:00000023
#026340:00000014
#027320:24
#027350:0013
#027320:00000023
#034380:00130000
#0343b0:0023
#043320:13000023
#043350:0000003300000000
#0453b0:13000023
#045380:0000003300000000
#047350:13000023
#047320:0000003300000000
#048380:13000023
#0483b0:0000003300000000
#057380:13
#0573b0:0000002300000000
#057321:13
#057351:0000002300000000
#062351:00130000
#062321:0023
#066321:14
#066341:00240000
#070321:00130000
#070351:0023
#070380:00130000
#0703b0:0023
#0753b0:13000023
#075380:0000003300000000
#077320:0013
#077350:00000033
#078320:23
#079320:13000023
#079350:0000003300000000
#080380:16565656565656565656565656565656
#080390:0054005400540054005400540054005400540054005400540054005400540054
#081380:56565656565656565656565626000000
#081390:0054005400540054005400540054005400540054005400540000000000000000
#000920:14
#001920:0024
#039990:13
#0399b0:0023000000000000
