This file was generated by Ched 2.7.0.0.
#TITLE ""
#ARTIST ""
#DESIGNER ""
#DIFFICULTY 0
#PLAYLEVEL
#SONGID ""
#WAVE ""
#WAVEOFFSET 0
#JACKET ""
#REQUEST "ticks_per_beat 480"
#00002: 4
#BPM01: 192
#00008: 01
#TIL00: ""
#VOLUME: ""
#HISPEED 00
#MEASUREHS 00
#0021b:2313000000130000
#00212:2613
#00215:0000001300000013
#00218:00131313
#00312:13135300
#00315:0000005300001313
#00318:1300530000530000
#0031b:0053000013005300
#00812:0013000000130000
#00816:0000001300000000
#00815:1300000000005353
#00814:00131300
#00818:0000130000000013
#0081b:1313
#0131b:0000130000130000
#01318:0000001313001313
#01315:00000000001300000013001300000013
#01312:00001300000000130000000000130000
#01317:0013000000000000
#01316:14
#03116:0000130000130000
#0311b:0000131300000000
#03117:13001313
#03119:0013000000000000
#03112:1300001300001300
#03115:0000000000000013
#03118:00000000000000000000000000000013
#03114:0013000000000000
#0321b:00131313
#03218:0000001300000013
#03212:13130013
#03215:00000000000000130000130000001300
#0381a:00141414
#03812:0026001300000000
#03816:00000000000000000013000000000000
#03818:26
#03810:41
#03912:5300001300001300
#0391a:14141414
#03914:00530000000000000000130000000000
#03916:0053000013000000
#04216:2312
#04212:00120000
#04214:00000012
#0421b:23535353
#04312:1200001200000000
#04316:00000012000000000012000000000000
#0431b:53535353
#07712:1300001319000000
#07715:00000000190000000000001300130013
#07718:0013000000131313
#0771b:13
#07812:1313190013001900
#0781b:1313
#07815:0000000000130000
#08218:00120012
#08216:0000001200000012
#08214:0012
#0821a:2424000000120000
#0821c:0012
#08212:2424000000000000
#08312:1212
#0831c:0012001200000000
#08314:00120000
#0831a:0000120000120000
#08318:12000000000000001200000012000013
#08315:0000000000000013
#08316:0012001200000000
#00112:0000001212260000
#00114:0012120000000000
#0011a:0012120000000000
#0011c:0000001212000000
#00115:00000026
#00118:0000000000000026
#00618:0013000000000000
#00612:0013001300131713
#00615:00130000
#0061b:2300001300000000
#00616:0000000000000013
#04412:13535353
#04418:0012
#0441c:00120000
#0441a:00000012
#0441b:53
#04812:13535353
#04818:0000001200000013
#04815:00000000000000000000000000000013
#0481c:12
#04810:41
#04912:00130026
#0491b:00130000
#04915:0000002600130000
#04918:26000000000000000000001300000000
#07412:2c2c130013000000
#07415:00000019
#07418:0000000000130000
#0741b:00131300
#07518:1313001300000000
#07515:00190000
#07512:1300000000131900
#0751b:00000013
#07612:13000019
#07615:00191300
#07618:0013000000130000
#0761b:1313
#00012:1212000000000000
#00018:1212000000000000
#00014:0000001212000000
#0001a:0000001212000000
#00016:0000000000001212
#0001c:0000000000001212
#00715:00000013
#00718:0000000000000013
#00717:0013171300000000
#0071b:0000001300000000
#00712:0000000000130000
#0091b:5353000013000013
#00915:00001300000000130000130000000000
#00912:0000535300001300
#00918:00000000000013000000001300000000
#00916:0000000000000013
#0211b:1300130013001313
#02115:0000001300000000
#02112:1300130013000013
#02118:0013000000000000
#02116:00000013
#0231b:0013
#02312:0012000013000000
#02314:00120000
#02316:0000001200000000
#02318:0012000000000000
#0231a:00120000
#0231c:0000001200000000
#02516:0012000012000014
#0251c:0012000012000000
#02518:0000001200130000
#02515:00000000000000000000001300000000
#0251b:00000013
#02512:0000001200001300
#0251a:00120000
#02514:00120000
#02712:0013000000000000
#02713:00130000
#02714:0000001300000000
#0271b:0013000000000000
#0271a:00130000
#02719:0000001300000000
#02718:00000000000000001300001300130013
#02715:0000000013131313
#02912:0013141526000000
#0291b:0013000000000000
#0291a:00140000
#02919:0000001500000000
#02915:0000000000131300
#02918:00000000000000002600001300000000
#03718:00001300000000130000130000001300
#03715:00000013000013000000001300000013
#03712:23000000000000002300000000130000
#0371b:13230023
#0401a:1400141400001400
#04016:0000000000140000
#04018:00000000000000000000001400000000
#04012:2800002800002800
#04116:0028140014230000
#04118:13
#04115:00130000000000000000000000000000
#04112:0024002800002300
#0411a:0000002400000000
#0411b:0000000000230000
#04117:00000023
#04114:0000000000000023
#04119:0000000000000023
#05715:13
#05714:0013000000000000
#05713:00130000
#05712:0000001300000000
#05718:23
#05719:0023000000000000
#0571a:00230000
#0571b:0000002300000000
#0691b:1313
#06916:1300001300000000
#06912:00130000
#06917:0013000000000000
#06914:0013000000000000
#06919:0000001300000000
#06918:0000000000131313
#06915:00000000000000000000001300130013
#06718:0000000000130000
#06712:00000000000013000000001300000000
#06716:00000000000000001300000000000013
#06715:13
#0671b:00130000000000000000000000000000
#06714:00001300000000000000000000130000
#06719:00000013000000000000000013000000
#06713:00130000
#06717:00000000001300000000000000000000
#0671a:0000000000000013
#06812:00131313
#06815:0000001300000000
#0681b:13000000000000130000000000000000
#06818:00000000001300000000000000000000
#06819:0000000000130013
#06817:00000013
#06814:0000000000000013
#06615:00000013000000000000000013000000
#0661b:0000000000000013
#06612:2600000024000013
#06618:0013000000001300
#06616:0024
#0661a:00240000
#08112:1616160014001200
#08118:00260000
#08116:0028
#08114:0000002a
#0811a:64
#03315:0000000000130000
#03318:00000000000000000000001300001300
#03312:13000013
#0331b:00001313
#00412:2313000000130000
#0041b:2313
#00418:0000001300000013
#00415:00131313
#00512:0053000013000013
#00518:0000005300130000
#00515:13530013
#0051b:13135300
#01012:1300131300130000
#0101b:0013000013001313
#01016:0013000000000013
#01017:0000001300130000
#01112:1300001300000000
#01116:0013000000130000
#0111b:0013000000130000
#01114:0018
#01117:0000000000000013
#0121b:1300001300000013
#01217:0013000000130000
#01212:0013000000130000
#01214:00130000
#01216:0000001314001413
#01418:0013160000130013
#01415:00131316
#01412:0000001300000000
#0141b:23000013
#01410:41
#01515:1316000016000000
#01512:0013001600001600
#01518:0000000000160013
#0151b:00000013
#01615:1313001300000013
#01618:0013000000130000
#0161b:00131313
#01612:00131313
#0171b:1300000000130000
#01718:00001300000000130000000016000000
#01715:00000000130000000000001300001300
#01712:1300001316000000
#01818:1300001600001613
#0181b:0013000000000000
#01815:0016000016000000
#01812:0000000000161300
#0191b:1300000013130000
#01912:00130000
#01915:0000001300000013
#01918:00000013
#02012:13160013
#0201b:1300001300000000
#02015:0013000000131613
#02018:0000130013000013
#03017:00000013
#03012:24000013
#0301b:0000000000000013
#03016:0000000000000013
#0301a:24
#03013:00240000
#03019:00240000
#03014:0024
#03018:0024
#03412:2400001300000013
#0341b:0000001300001300
#03416:00000013
#03417:0000000000000013
#0341a:24
#03414:00240000
#03418:00240000
#03516:13001313
#03514:0013000000000000
#03512:0000131300000000
#0351b:1300001300001300
#03519:0013000000000000
#03517:0000130000130000
#03518:0000000000000013
#03515:00000000000000000000000000000013
#0361b:13130013
#03612:00131313
#03615:0000001300000013
#03618:00000000000000130000130000001300
#0451c:1200001200000000
#04518:00000012000000000012000000000000
#04512:53535353
#0461b:13535353
#04616:0012
#04612:53120000
#04614:00000012
#04712:12
#04716:0000001200000000
#0471b:53535353
#05012:24141414
#05017:00130000
#05019:0000001300000000
#0501b:0013
#0501f:11
#0501a:24
#05112:14141414
#05117:1313
#05119:0000000000130000
#0511b:00000013
#05212:1413
#0521a:14141414
#05216:00130000
#05214:0000001300000000
#0531a:14141414
#05316:1313
#05314:0000000000130000
#05312:00000013
#05415:00130013001300130013001300130013
#05418:0013130013130013
#0541b:2300002300002300
#05515:00130013001300130013001300130013
#05518:0013130013130023
#0551b:2300002300002300
#05612:00001300000000000013001300002600
#05615:00000000001300130000000000000000
#0561b:2300001300000000
#05618:0000260026132616
#05918:0000000000130000
#05912:00000000130013000000001300000000
#05916:13000000000000001300000000000013
#05914:00001300000000000000000000130000
#05919:0013000000001300
#0591a:0000000000000013
#0591b:1300001300000000
#05917:00130000
#05910:41
#06016:00130000
#06014:0000001300000000
#0601b:13000013
#06019:00000000001300000000000000000000
#06017:00000000000000130000000000000000
#06012:00001313
#06018:0000000000130013
#06015:0000000000000013
#06515:00001300000000130000130000001300
#06518:00000013000013000000001300000013
#0651b:23000000000000002300000000130000
#06512:13230023
#06118:0000000000130000
#06115:00000000000000000000001300001300
#0611b:13000013
#06112:00001313
#05816:24242413
#0581b:00000013
#05812:0000240000000013
#05817:0000000000000013
#0581a:2424
#0581f:21
#0621b:0000001300000013
#06212:2400001300001300
#06217:00000013
#06216:0000000000000013
#0621a:24
#06218:00240000
#06214:00240000
#06315:0000000000130000
#0631b:00000000130013000000001300000000
#06317:13000000000000001300000000000013
#06319:00001300000000000000000000130000
#06314:0013000000001300
#06313:0000000000000013
#06312:1300001300000000
#06316:00130000
#06417:00130000
#06419:0000001300000000
#06412:13000013
#06414:00000000001300000000000000000000
#06416:00000000000000130000000000000000
#0641b:00001313
#06418:0000000000000013
#06415:0000000000130013
#07115:0000000000130000
#0711b:00000000000013000000001300000000
#07117:00000000000000001300000000000013
#07118:13
#07112:00130000000000000000000000000000
#07119:00001300000000000000000000130000
#07114:00000013000000000000000013000000
#0711a:00130000
#07116:00000000001300000000000000000000
#07113:0000000000000013
#0721b:00131313
#07218:0000001300000000
#07212:13000000000000130000000000000000
#07215:00000000001300000000000000000000
#07214:0000000000130013
#07216:00000013
#07219:0000000000000013
#07018:26000013000000000000000013000000
#07012:0000240000000013
#0701b:0000000000000013
#07015:0013000000001300
#0701a:0024
#07016:0024
#07318:0013000023000000
#07315:00000013000000000000000000000013
#07312:23000000000000000013000000000000
#07319:0000000000130000
#07313:00000000000000000000001300000000
#07314:00000000000000000000000000130000
#0731b:0000230000000013
#07317:23
#0731a:00000023
#07310:41
#07915:1313001300001900
#07912:00190013
#0791b:1300000000130000
#0841a:24
#08412:24
#02216:2424002424002424
#02212:2424002424002424
#0241a:2424002424002424
#02416:2424002424002424
#0261a:2424002424002400
#02612:2424002424002400
#02610:41
#0281a:2424000000002424
#02814:2424000000000000
#02818:0000002424000000
#02812:0000002424002424
#0801a:6464
#08019:0064000000000000000000000000006400640000000000000000000000000064
#08018:00640000000000640064000000000064
#08017:0000006400000000000000000064000000000064000000000000000000640000
#08016:0064006400640064
#08015:0000000000640000000000640000000000000000006400000000006400000000
#08014:00000064006400000000006400640000
#08013:0000000000000064006400000000000000000000000000640064000000000000
#08012:00640064
#04352:5200005200001200
#04356:00000022000000000022000000000000
#04955:0000001600000000
#04958:16
#04952:00000016
#02256:1414001414001414
#02252:1414001414001414
#03052:14
#0305a:14
#03059:00140000
#03053:00140000
#03054:0014
#03058:0014
#0315b:0000005300000000
#03157:0023
#03152:0000001300000000
#03852:0016006300000000
#03856:00000000000000000023000000000000
#03858:16
#0585a:1414
#05856:14141400
#05852:00140000
#07558:0000005300000000
#07555:00190000
#07552:00000019
#0065b:0000006300000000
#00656:0000000000000023
#0235b:0063
#02352:00005314
#0235a:00000014
#0245a:1414001414001414
#02456:1414001414001414
#0255b:00000013
#02652:1414001414005400
#0265a:1414001414006400
#0285a:1414000000001414
#02854:1414000000000000
#02858:0000001414000000
#02852:0000001414001414
#02952:0016
#02958:0016
#02955:00000053
#03252:13
#0325b:0013
#04052:1800001800001800
#04156:0018000000000000
#04152:0000001800000000
#0695b:6343
#06956:0000002300000000
#06952:00533300
#06957:0023000000000000
#06752:0000006300000000
#06756:0023
#0685b:13
#06852:0013
#06652:0014
#06656:0014
#0665a:00140000
#07455:00000019
#07655:00190000
#07652:00000019
#07755:00190000
#07752:0019
#07852:00190019
#0815a:44
#08154:0000004a
#08156:0048
#08158:00460000
#08452:14
#0375b:00130013
#03752:1313
#03352:00000013
#0335b:0013
#00252:16
#0075b:0000006300000000
#00552:0013
#01156:0013000000530000
#0115b:0053000000130000
#0125b:0000001300000013
#01252:0000000000130000
#01352:0013000000000000
#01555:0056000000000000
#01658:0053000000530000
#0165b:00530053
#01655:0000005300000000
#01652:0053
#01752:0016
#01758:00000016
#01458:00160000
#01455:00000016
#01855:0066000000000000
#01955:0000005300000000
#01952:0000000000130000
#02052:00160000
#02055:0000000000001653
#02158:0053000000000000
#02152:5313
#0215b:00531300
#0345a:14
#03452:1400002300000000
#03454:00541400
#0345b:0000002300000000
#03458:00641400
#03952:00000013
#0455c:6200006200001200
#04558:00000022000000000022000000000000
#04752:52000012
#04756:0000005200000000
#0485c:62000012
#04858:0000006200000000
#05157:53
#0515b:00000013
#05356:63
#05352:00000013
#0575b:0000001300000000
#05752:0000001300000000
#0545b:1300001300001300
#0555b:1300001300001300
#05952:0000006300000000
#05956:0023
#0595b:0000001300000000
#0605b:13
#06052:0013
#0615b:00000013
#06152:0013
#0625b:0000002300000000
#06252:1400002300000000
#0625a:14
#06258:00641400
#06254:00541400
#0635b:0000005300000000
#06357:0023
#06352:0000001300000000
#06452:13
#0645b:0013
#06552:00130013
#0655b:1313
#03552:0000006300000000
#03556:0023
#0355b:0000001300000000
#0365b:13
#03652:0013
#0715b:0000005300000000
#07157:0023
#07252:13
#0725b:0013
#0705a:0014
#07056:0014
#07058:16
#07052:00140000
#07352:13
#0735b:00130000
#07952:00190000
#07955:0000006300001900
#0565b:13
#0063b0:0000001300000000
#006360:0000000000230000
#006360:0000000000000013
#0073b0:0023000000000000
#0073b0:0000001300000000
#007360:0000000000230000
#0113b0:0013000000000000
#011370:0000002300000000
#011360:0000000000130000
#011320:0000000000000023
#015350:0016000000000000
#015380:0000002600000000
#016380:0013002300000000
#0163b0:00330000
#016351:0000001300230000
#016321:0033
#016380:0000000000130023
#0163b0:00000033
#018350:0016000000000000
#018320:0000002600000000
#018350:0000000000000013
#019350:0023000000000000
#019381:0013002300000000
#019350:0000001300000000
#019320:0000000053230000
#020350:0000000000000013
#021320:33
#021350:0023000000000000
#021381:0013002300000000
#0213b1:00330000
#0233b1:0013
#023321:00000024
#023320:0013
#0233a0:00000024
#026320:00000014
#027360:22
#0263a1:00000014
#027381:22
#029351:00000013
#030321:24
#0313b1:0000001300230000
#031371:0053
#0333b1:13
#033381:0023000000000000
#033350:0013000000000000
#033320:00230000
#033381:00130000
#0333b1:0000002300000000
#033320:0000001300000000
#033350:0023
#034340:00142400
#034320:0000005300000000
#034381:00142400
#0343b1:0000005300000000
#035321:0000001300230000
#035361:0053
#038321:0000001300002300
#038361:00000000000000000053000000000000
#043321:1200003200002200
#043361:00000052000000000052000000000000
#0453c1:1200003200002200
#045381:00000052000000000052000000000000
#047321:12000022
#047361:0000003200000000
#0483c1:12000022
#048381:0000003200000000
#050371:00000013
#051371:33
#0513b1:0000332300000000
#052361:00000013
#053361:33
#053321:0000332300000000
#059321:0000001300230000
#059361:0053
#061321:13
#061351:0023000000000000
#061380:0013000000000000
#0613b0:00230000
#061351:00130000
#061321:0000002300000000
#0613b0:0000001300000000
#061380:0023
#062380:00142400
#0623b0:0000005300000000
#062341:00142400
#062321:0000005300000000
#0633b1:0000001300230000
#063371:0053
#067321:0000001300230000
#067361:0053
#0693b1:13230000
#069371:0033000000000000
#069320:00132300
#069360:0000003300000000
#0713b0:0000001300230000
#071370:0053
#075380:0000001300000000
#0753b0:0000000000230000
#079350:0000001300000000
#079320:0000000000230000
#003980:13230000
#0039b0:0053000000000000
#003921:00132300
#003951:0000005300000000
#0039b0:00001323
#003980:0000000000530000
#005950:13230000
#005920:0053000000000000
#0059b1:00132300
#005981:0000005300000000
#008921:0000000000130000
#008951:0000000000005323
#008980:0000000000000013
#0099b0:5323000000000000
#009951:0013000000000000
#009921:0000532300000000
#039921:13
#039961:0023000000000000
#0429b1:001300000000000000000000000000000000000000000000000000000000000000000000000000000000000000000000000000000000000000000000000000000000000000000000000000000000000000000000000000000000000000000000000000000000000000000000000000000000000000000000000000000000000000000000000000000000000000000000000000000000000000000000000000000000000000000000000000000000000000000000000000000000000000000000
#0449b1:23
#044920:13
#046920:23
#0469b1:13
#0479b1:00000023
#048921:13000023
#0809a1:1454
#080921:00540054
#0819a1:24
