This file was generated by Ched 2.7.0.0.
#TITLE ""
#ARTIST ""
#DESIGNER ""
#DIFFICULTY 0
#PLAYLEVEL
#SONGID ""
#WAVE ""
#WAVEOFFSET 0
#JACKET ""
#REQUEST "ticks_per_beat 480"
#00002: 4
#BPM01: 138
#00008: 01
#TIL00: ""
#VOLUME: ""
#HISPEED 00
#MEASUREHS 00
#0091a:0014
#01012:0014
#01112:0014
#01314:0014
#01418:0014
#01514:0014
#0161a:0014
#01610:0041
#01712:0014
#0181a:0014
#01912:0014
#04718:0014
#04814:0014
#0491a:0014
#06112:0014
#0081a:0014
#00810:0041
#01218:0014
#03118:16
#03112:0016
#03218:16
#03210:0041
#03518:16
#03512:0016
#03618:1616
#03712:16
#03718:00160000
#03912:16
#03918:0016
#04012:16
#04010:0041
#04312:16
#04318:0016
#04412:1616
#0441f:0011
#04518:16
#04512:00160000
#04612:0014
#05218:0016
#0521f:0021
#05312:16000016
#05318:0016
#05310:0041
#05518:16
#05512:0016
#05618:1616
#05712:1616
#05418:16
#05412:0026
#05818:1616
#05812:00160000
#02818:0024
#03012:0026
#03412:0026
#03818:0026
#04218:0026
#02410:0041
#05858:0056
#0003a0:0014
#0013a0:0024
#002320:0014
#003320:0024
#004380:0014
#005380:0024
#006340:0014
#007340:0024
#0203a0:0014
#0213a0:0024
#022320:0014
#023320:0024
#024380:0014
#025380:0024
#026340:0014
#027340:0024
#028380:0014
#0293a0:0024
#032320:0016
#033320:26
#033380:0016
#034380:26
#037320:0016
#038320:26
#040380:0016
#041380:26
#041320:0016
#042320:26
#045380:0016
#046380:26
#050320:0014
#051320:00003434
#052320:24
#058380:0016
#060350:0026
#062380:0014
#0633a0:0024
#064340:0014
#065320:0024
#0663a0:0014
#067380:0024
#068320:0014
#069340:0034
#070340:24
