This file was generated by Ched 2.7.0.0.
#TITLE ""
#ARTIST ""
#DESIGNER ""
#DIFFICULTY 0
#PLAYLEVEL
#SONGID ""
#WAVE ""
#WAVEOFFSET 0
#JACKET ""
#REQUEST "ticks_per_beat 480"
#00002: 4
#BPM01: 138
#00008: 01
#TIL00: ""
#VOLUME: ""
#HISPEED 00
#MEASUREHS 00
#00212:1313
#00218:0000130013000013
#00215:0000001300001300
#0031b:1313
#00315:1300001300001300
#00318:0000130000130013
#00312:0013
#03712:1313
#03716:00000013
#0371b:00130000
#03715:0013001300000000
#03718:0013001300000000
#01412:1300000000000013
#01418:0000001300130000
#0141b:1313
#01415:00000013
#02117:23000013
#02112:23130013
#02115:0000001300000000
#02118:0013
#0211b:0000000000130000
#02212:0000130013000013
#02218:0000001300130013
#0221b:23130013
#02215:0000001300130000
#02216:23
#02318:00131300
#0231b:0000001300002300
#02316:13
#02315:0000000000130000
#02312:00001313
#02618:0013000013000000
#0261b:00130000
#02615:0000130000001313
#02612:0000001300000000
#02718:0013000000000000
#02716:0013
#0271b:00000000000013001300001300000000
#02712:13000000000000000000003300000000
#02715:00130000
#03112:2300130000000023
#03118:0000001300000000
#0311b:00132300
#03117:2300000000002323
#03116:0023
#03212:00130013
#03215:0000001313000000
#03218:0000000013000013
#0321b:23
#03216:23
#03210:0041
#03512:00131313
#03515:0000001300000000
#0351b:2300130000130013
#03518:00001313
#03516:23
#03612:13131313
#03615:0013001300000013
#0361b:00130013
#03618:1300000013000013
#03815:00130000
#03818:0000001300000000
#0381b:1323
#03816:0023
#04818:0000000000130000
#04815:00000013
#04812:2300000000000013
#0481b:00131300
#04817:0000001300000000
#0491b:1300000000000023
#04918:0013001300002300
#04915:1300130000230000
#04912:0023
#05012:14
#05014:0014000000000000
#05016:00140000
#05018:0000001400000000
#0501a:0024
#0001b:0000001313000000
#00012:0000000013000013
#00018:0000000000130000
#00015:00000013
#0011b:13000013
#00112:00130000
#00117:0000001300000000
#00116:0000000000130000
#00115:13
#0041b:1300001313000000
#00412:1300000013000013
#00415:00130013
#00418:0000000000130000
#0061b:1313
#00615:0000130013000013
#00618:0000001300001300
#00712:1313
#00718:1300001300001300
#00715:0000130000130000
#0071b:0013
#00516:0000001300000000
#00517:0000000000130000
#00512:00000013
#00515:13
#00518:0013000000000000
#0051b:00130000
#00812:1313
#00818:0000130000130013
#0081b:1323
#00815:00000023
#00810:0041
#00912:1323
#00915:0013001300130013
#0091b:2313
#00918:00230023
#01215:0000232300130000
#0121b:2300000000000013
#01218:00001300002300000000000013000000
#01212:2313
#01312:13001313
#01315:0000130000130000
#0131b:0013000013001300
#01318:0000001300000000
#0151b:13001313
#01518:0000130000130000
#01512:0013000013001300
#01515:0000001300000013
#01618:1300000000130000
#01615:1300001300001300
#0161b:0000000000000013
#01612:0023
#01610:0041
#01818:1300001300001300
#01815:1300000000130000
#01812:0000000000000013
#0181b:0013
#01712:1300001313001300
#0171b:0013130013001300
#01715:0000000000130000
#0191b:1300001313001300
#01912:0013130013001300
#01918:0000000000130013
#01915:0000000000000013
#02418:1300001300000000
#02415:23130000
#0241b:00001313
#02412:0013
#02410:0041
#02414:0000000000530053
#02416:00000053
#02512:5300130013000013
#02515:0000000000130000
#02518:00000013
#0251b:1300000053000013
#02519:0053005300000000
#02517:00530000
#02817:13
#02812:13000013000000000000000000003313
#0281b:00000033000000001300000013001300
#02816:0023
#0291b:1313131300000000
#0291a:0000000024240000
#02912:3300000024240000
#0331b:1313000000001300
#03312:0000131300001300
#03318:0000000000130000
#03315:0013
#03415:13
#03418:13
#03412:0013000000000000
#0341b:0013000023000000
#03416:0023
#04618:00130000
#04615:0013000000000000
#0461b:0000001300000000
#04617:0000000000130000
#04616:0000000000000013
#04612:13
#04717:0013000013000000
#04712:0013
#0471b:00000013
#04716:0000001300000000
#04713:0000000000330000
#0471a:0000000000000033
#0521b:0000000000131300
#05212:0000000013000013
#05217:0013
#05216:00000013
#05215:23
#05218:23
#0521f:0021
#05312:1300001313000000
#0531b:0013130000001300
#05317:0013
#05310:0041
#05412:1323
#05415:0013000000000000
#0541b:13
#05418:0013000000000000
#05417:0023
#0561b:0013000013000013
#05612:1313
#05615:0000001300000013
#05618:13130013
#05515:0000001300000000
#05518:00130000
#0551b:0013000013000013
#05512:2300000000131300
#05517:23
#05712:13000013
#05715:00130000
#0571b:13000013
#05718:0000130000000013
#05916:0000001400000000
#06012:0013
#06018:0013
#06015:0000000000130013
#06019:00000013
#0611a:13
#06112:1300001300000000
#06115:0013000013000000
#0611b:00131300
#06118:0000000000130013
#06114:00000013
#06213:13
#06212:00131200
#0621b:13
#06218:0013000000000000
#0621c:0000001212000012
#06215:0000000000120000
#06219:00000012
#0641a:0012
#0641b:13
#06416:0000120000000012
#06418:0000001200001200
#06514:1200000000120000
#0651a:00120000
#06518:0000001200000012
#06516:00001212
#06312:12000012
#0631c:00120000
#06316:0000001200000000
#06318:1200000000120000
#06616:12
#0661a:1200001200000000
#06618:00120000
#0661c:0012
#06612:0000000012000012
#06619:0000000000120000
#06615:00000012
#0101b:1323
#01018:0013001300130013
#01012:2313
#01015:00230023
#01112:1323
#01115:0013001300130013
#0111b:2313
#01118:00230023
#02012:0000130000000033
#0201b:0000003323001300
#02017:00130000
#02016:00002313
#0391b:2300130000000023
#03915:0000001300000000
#03912:00132300
#03916:2300000000002323
#03917:0023
#0401b:0000130000131300
#04018:0000001313000000
#04015:0000000013000013
#04012:23
#04017:23
#04010:0041
#04112:1313000000001300
#0411b:0000131300001300
#04115:0000000000130000
#04118:0013
#04218:13
#04215:13
#0421b:0013000000000000
#04212:0013000023000000
#04217:0023
#0451b:1313
#04517:00000013
#04512:00130000
#04518:0013001300000000
#04515:0013001300000000
#0431b:00131313
#04318:0000001300000000
#04312:2300130000130013
#04315:00001313
#04317:23
#0441b:13131313
#04418:0013001300000013
#04412:00130013
#04415:1300000013000013
#0441f:0011
#05112:00000000260000001400001400001400
#0511a:00000000000000001400001400001400
#05815:13130000
#05818:0013000000000000
#05812:000000132c000000
#0581b:0000001300000000
#06814:0012
#06812:12
#06818:0000120000000012
#06816:0000001200001200
#0691a:1200000000120000
#06914:00120000
#06916:0000001200000000
#06918:00001212
#06718:0012001200000000
#06716:0000120000120000
#0671c:00000012
#0671a:12
#06712:0000001200000000
#07016:12
#0701a:00220000
#07014:0000002200000000
#03012:0023
#03017:0023
#03752:5363
#0375b:00630000
#03755:0053000000000000
#03758:0000006300000000
#03756:00000023
#05852:005c
#01452:63
#0145b:53
#02157:13000063
#02152:13000063
#02658:0063
#0265b:0000000000000013
#02758:0013000000000000
#02756:0063
#0275b:00000000000000000000006300000000
#02757:0000000000000013
#02752:0000000000000013
#05158:00160000
#05152:00160000
#04852:63
#0015b:53000053
#00157:0000006300000000
#0045b:63
#00556:0000005300000000
#00552:00000063
#01352:63
#01355:00630000
#0155b:53
#01558:00530000
#01658:63
#01655:53
#01858:63
#01855:53
#01752:63
#0175b:00630000
#0195b:53000053
#01958:0000000000000023
#01952:00530063
#01955:0000000000000023
#0205b:4313
#02056:00001353
#02052:33
#02057:00530000
#0225b:13530053
#02256:13
#02258:0000002300000023
#02255:0000000000230000
#02252:0063
#02356:53
#0235b:00000013
#02455:13
#02857:53
#02852:00000053000000000000000000000023
#0285b:0000001300000000
#02856:0000001363000000
#03052:0053
#03057:0053
#03056:00000013
#0305b:00000013
#03152:13
#03157:13
#03156:0063
#03256:13
#0325b:13
#03258:0053
#03455:63
#0345b:0023000063000000
#03456:0063
#03457:00000013
#03452:0023000000001300
#03458:53
#0355b:13
#03556:13
#0365b:00000063
#03658:0000000000000063
#04752:0053
#0475b:00000063
#0505a:0054
#05258:53
#05255:53
#05252:00135300
#0525b:00130063
#05352:5353
#0535b:00630013
#05356:00000013
#05452:53335300
#05457:0053
#05456:00000013
#0545b:63430013
#05455:0023000000000000
#05458:0023000000000000
#05552:13000063
#05557:13
#0555b:0063
#05752:5333
#05755:00230000
#0575b:6343
#05758:00230000
#05956:0000002400000000
#06352:62000062
#06356:0000005200000000
#06656:52
#0665a:12
#0335b:00000013
#03352:00000013
#00852:53
#04258:53
#04255:63
#0425b:0023000000001300
#04252:0023000053000000
#04257:0053
#04256:00000013
#04152:00000013
#0415b:00000013
#04055:0063
#04052:13
#04057:13
#0385b:0063
#03856:0063
#03857:00000013
#03852:00000013
#0395b:13
#03956:13
#03957:0053
#0455b:6353
#04557:00000023
#04552:00530000
#04558:0063000000000000
#04555:0000005300000000
#04452:00000053
#04455:0000000000000053
#04352:13
#04357:13
#06758:0000006200000000
#0675c:00000052
#07056:52
#0295a:0014
#02952:0000000000140000
#0495b:0000000000000013
#0013b0:13
#001370:00230000
#001370:0000001300000000
#0013b0:0000000000230000
#0013b0:00000013
#001370:000000000000000000000033
#002370:23
#0043b0:13
#004380:00230000
#005360:0000001300000000
#005320:0000000000230000
#005320:00000013
#005360:000000000000000000000033
#006360:23
#008320:13
#008350:00230000
#013320:13
#013350:0023000000000000
#013350:00130000
#013320:0000002300000000
#014320:13
#014350:00230000
#0143b1:13
#014381:00230000
#0153b1:13
#015381:0023000000000000
#015381:00130000
#0153b1:0000002300000000
#016381:13
#0163b1:00230000
#016350:13
#016320:00230000
#017320:13
#017350:0023000000000000
#0173b0:00130000
#017380:0000002300000000
#018380:13
#0183b0:00230000
#018351:13
#018321:00230000
#0193b1:13
#019381:0023000000000000
#019321:00130000
#019351:0000002300000000
#0193b1:00000013
#019381:0000000000000053
#0203b1:23
#019320:00000013
#019350:0000000000000053
#020320:23
#020370:00130000
#0203b0:0000003323000000
#020360:00000013
#020320:0000000000000033
#021320:23
#021370:00000013
#0223b0:23
#021321:00000013
#022361:23
#0223b1:00132300
#022381:0000003300000000
#022320:00001323
#022350:0000000000330000
#0223b1:00000013
#022381:0000000000000033
#0233b1:23
#023360:13
#023320:00230000
#026380:0013
#0263b0:0000000000003323
#027360:0013
#027320:00000000000000000000003300002300
#0273b1:00000000000000000000001300000000
#027371:0000000000000023
#028371:13
#0283b1:00000033000023000000000000000000
#028320:00000013000000000000000000000000
#028360:0000002300000000
#028360:0013
#028320:00000000000000000000000000003353
#029320:33
#029360:0000002300000000
#030320:0013
#030360:00000023
#030371:0013
#0303b1:00000023
#031361:0013
#031321:00000023
#032381:0013
#0323b1:00000023
#033351:1323000000000000
#033381:0000132300000000
#034351:13230000
#034321:0053000000000000
#034380:13230000
#0343b0:0053000000000000
#0343b0:0013
#034370:00000023
#034361:0013
#034321:00000023
#0363b1:00000013
#036381:0000000000000033
#0373b1:23
#037320:13230000
#037350:0033000000000000
#0373b1:00132300
#037381:0000003300000000
#037320:0013
#037360:00000053
#038320:23
#0383b0:0013
#038370:00000023
#038361:0013
#038321:00000023
#039371:0013
#0393b1:00000023
#040351:0013
#040321:00000023
#041381:1323000000000000
#041351:0000132300000000
#042381:13230000
#0423b1:0053000000000000
#042350:13230000
#042320:0053000000000000
#042320:0013
#042360:00000023
#042371:0013
#0423b1:00000023
#044321:00000013
#044351:0000000000000033
#045321:23
#0453b0:13230000
#045380:0033000000000000
#045321:00132300
#045351:0000003300000000
#0453b0:0013
#045370:00000053
#0463b0:23
#046320:0000000013230000
#0463b0:0000000000001323
#047320:1323000000000000
#0473b0:0000132300000000
#047320:0013
#047330:0000000000330000
#047360:00000023
#0473b1:00000013
#0473a1:0000000000000033
#048371:23
#048320:1300003300000000
#048360:00332300
#0503a0:0014
#051380:00260000
#052350:13
#052320:00230000
#052381:13
#0523b1:00230000
#052321:0013
#052361:0000000000230000
#0523b1:00000013
#052371:0000000000000023
#053321:13
#053361:0023000000000000
#0533b1:00130000
#053371:0000002300000000
#053321:0013
#053361:0000000000332300
#054321:13230000
#054351:0053000000000000
#0543b0:13230000
#054380:0053000000000000
#054320:0013
#054360:00000023
#054371:0013
#0543b1:00000023
#0553b1:0013
#055371:0000000000230000
#055321:00000013
#055361:0000000000000023
#057321:1323
#057351:00530000
#0573b0:1323
#057380:00530000
#058320:001c
#059360:0000005400000000
#060320:002c0000
#063320:12
#063360:00220000
#063360:0000001200000000
#063320:0000000000220000
#063320:00000012
#063360:000000000000000000000032
#064360:22
#066360:12
#066320:00220000
#067380:0000001200000000
#0673c0:0000000000220000
#0673c0:00000012
#067380:000000000000000000000032
#068380:22
#070360:12
#070340:00220000
#024920:0013
#024960:00000053
#025920:23
#0259b1:1323
#025971:00530000
