This file was generated by Ched 2.7.0.0.
#TITLE ""
#ARTIST ""
#DESIGNER ""
#DIFFICULTY 0
#PLAYLEVEL
#SONGID ""
#WAVE ""
#WAVEOFFSET 0
#JACKET ""
#REQUEST "ticks_per_beat 480"
#00002: 4
#BPM01: 138
#00008: 01
#TIL00: ""
#VOLUME: ""
#HISPEED 00
#MEASUREHS 00
#03712:00121300
#03716:12000013
#03718:1200001200000000
#03714:0012000000000000
#0371a:0000120000120012
#0371c:0012
#03719:00000012
#01412:14001414
#01416:0000001200000000
#0141b:13
#01418:0012
#0141a:0000000000120012
#0141c:00000012
#02216:22120000
#02218:0000001200000012
#0221c:2200120000121200
#02212:0000001212000000
#02217:00000012
#02313:0000001200000000
#02312:1200000000121300
#02318:12
#0231c:00121200
#02319:0000001200000000
#02316:0012
#0231b:00000023
#02618:0012
#0261b:13130000
#02612:0012000013001300
#02616:00120000
#02614:0000001200000000
#02615:0000000000130000
#02617:0000000000000012
#0261c:0000000000000012
#0271a:0012000000000000
#02712:13000000130000001200001200000000
#0271c:0000000012000012
#02717:0000001200000000
#02715:0012000000000000
#03118:00120000
#03114:0000001200000000
#03112:0000120000130023
#0311a:0000001200000000
#03117:0000000000130023
#03116:2323
#0311b:2323
#03216:23141214
#03214:0000001200000000
#0321a:0014
#03212:0000120000121212
#0321b:23
#03210:0041
#0331c:1212
#03316:0012120012000000
#03314:1200000000120000
#03312:00000012
#03318:0000120000320000
#0331a:0000001200000000
#03512:2314
#0351c:0000120000121200
#0351a:0000001200000012
#03516:00000014
#03517:23120000
#03515:0000001200000000
#03518:0012
#03612:1400001200001200
#0361c:0012000012001200
#0361a:00120000
#03618:1200001200000012
#03616:0012000014000000
#03614:00120000
#03815:0000131300130000
#03818:00000000001300130000130000000000
#0381c:12
#03812:0013000023000000
#0381b:0013000023000000
#0481b:1300130000130000
#04812:0000001313001300
#04815:0000000000000016
#04816:00130000
#04818:00000013
#04817:0013
#04915:1316001300000012
#04918:00130000
#0491b:1300002300002200
#04912:00131200
#04913:0000000000120000
#04914:00000012
#04919:0022
#0491a:0000000000220000
#0491c:0000000000000022
#05012:1212
#05019:0012000000000000
#05017:00120000
#05015:0000001200000000
#0501c:0012
#0001a:0012
#0001c:0000001200000000
#00012:0012
#00018:0000000000120000
#00016:00000012
#00014:0000000000000012
#0011c:12000012
#00114:00120012
#00118:0000001200000000
#00116:0000000000120000
#00112:120000000000000000120000000000000000000000001200
#00312:00121200
#00318:0000001200000012
#0031a:00121212
#00314:0000000000120012
#00316:00000012
#0031c:1200000000120000
#00418:12000012
#00412:1200001200000000
#00416:0000120000120000
#00414:0012
#0041c:0012
#0041a:0000000000000012
#00516:0000121200000000
#00518:0000000000120000
#00512:12000012
#0051c:12000000000012000000000000000012
#00514:0012000000000000
#0051a:00120012
#00816:12
#0081c:00120000
#00817:0000000000130000
#0081b:0000000013005313
#00812:00002424
#00810:0041
#00819:00000000000000000000005300000000
#00718:00000012
#00714:00121212
#0071c:0000120012000012
#00712:1200000000120000
#00716:0000001200000000
#0071a:0000000000120000
#00919:13000053000000000000005300000000
#00917:0013001300130000
#0091b:0000530013005313
#00912:24242424
#01212:24231414
#0121c:0012
#0121a:2400000000120012
#01218:0000002300001200
#01214:0013000000000000
#01219:0013000000000000
#0121b:00230000
#01215:00000000002300000000000000000000
#0131c:12
#01318:0000120000130000
#01312:14141414
#0131b:00001313
#01512:14141414
#0151c:00121200
#01518:12000012
#0151a:0000000000120000
#01516:0000000000000012
#01618:0000001200000000
#0161b:13
#01612:1412
#0161a:00001414
#01614:0000000000120012
#01616:00000012
#01610:0041
#02112:22120012
#02118:22120012
#02114:0000001200120000
#0211a:0000001200120000
#0211c:0012
#02116:0012
#02418:13000000000000120000120012001200
#0241b:00131300
#02416:0000001200000000
#02412:00131313
#02415:23
#02410:0041
#02512:1300130000120012
#0251c:12
#0251a:0012001200000000
#02518:00120000
#0251b:00001313
#02516:00001212
#02816:0000000000001212
#0281c:12000012000000000000000000000000
#02812:1200001212000000
#02817:0022
#02914:1212000000000000
#02912:0000121224240000
#0291c:22
#0291a:0000000024240000
#04616:00000012000000000000140000000000
#04612:12000000000000120000000000001400
#0461c:0012000000000000
#0461a:00120000
#04614:00000000001200000000000000000000
#04618:0000001200000000
#04716:0014000013000000
#04712:0000001400001300
#0471b:0013
#04714:0000000000130000
#04719:0000000000000013
#0471a:0000000000330000
#04713:0000000000000033
#05112:00241400
#05116:00000000000000000000001400001400
#0511a:00242424
#00212:12120012
#00217:12
#0021c:0000001212000012
#00218:00120012
#00617:12
#0061c:12120012
#00612:0000001212000012
#00616:00120012
#01017:1313000000000000
#01016:0000001400130000
#01012:2400240013005313
#0101a:00002424
#01019:00000053000000000000000000000000
#0101b:00530000
#01014:00000000000000000000005300000000
#01916:1200000000141200
#01912:0000120014000012
#0191c:0000000000000012
#01918:00000012
#0191a:14141400
#02012:00120000
#0201a:0000001200000000
#0201c:00002212
#02016:00002212
#02014:0000000000000012
#02018:00120000
#03418:13001300130000130000000000000000
#03415:00130000000013000000000000000000
#03412:0000130000130000
#03417:0000000000130000
#0341b:0023
#03416:0023
#03918:23120000
#03916:0000001200130023
#03912:00122300
#0391c:0000001200000000
#0391b:0000000000130023
#03915:23
#03917:0023
#0551a:0000120000120012
#0551c:0012000012001200
#05512:2300001200000000
#05514:00120024
#05518:0000001200000000
#05516:0012000024000000
#0551b:23
#0561c:0012000012000012
#0561a:00120000
#05612:2400001200001200
#05618:1200001200001200
#05616:0012000024000012
#05614:00120000
#05314:0012001200120000
#05316:00120012
#05318:1212
#05312:1212
#0531c:00120012
#0531a:0000000000120000
#05310:0041
#05418:1313001300130000
#05415:00130000000000130000130000000000
#0541b:00132300
#05412:00000000001300002300000000000000
#05216:00000012
#0521a:2400000000000000006300000000006300000000120000000000000012000000
#0521c:00000012
#05212:2412
#0521b:00236300
#0521f:0021
#05219:00000000006300630000000000000000
#05218:0000000000000000000000630063000000000000000000000000000000000000
#05217:0000006300000000
#05712:1213000014001300
#05718:120013000000000000130000
#05715:000000000013000000000000000000000000000000130000
#0571b:0000130000000013
#05714:0000001300000000
#0571a:0014
#05719:0000001300000000
#05818:1212120000000000
#05816:00120012000000000000000000000000
#05814:00000000001200000000000000000000
#0581a:0000001200000000
#05812:00000000000000122c00000000000000
#0621c:0012000000000000
#0621a:14121200
#06212:14000000000000120000000000000000
#06216:00000012000000000000000012000000
#06214:00000000001200000000000000001200
#06218:0000001200120000
#06116:0000000000000014
#0611b:0013
#06112:13131324
#06118:0000001300000000
#0611a:00130024
#06117:0013000000000000
#06119:13
#06115:0000000000260000
#06016:0000000000000013
#06018:00000013
#06015:0000000000130000
#06017:0013
#06012:00001313
#0631c:12000012
#06314:00120000
#06317:0000001200120000
#06312:120000000000000000120000000000000000000000001200
#06315:00000012
#06512:00121200
#06518:0000001200000000
#0651a:0000120012000012
#06514:0000000000120012
#06516:00000012
#0651c:1200000000121200
#06618:12000012
#06612:1200001200000000
#06616:0000120000120000
#0661c:0000001200000000
#06614:0012
#0661a:0000000000000012
#06412:12120012
#06417:12
#0641c:0000001212000012
#06418:00120012
#06817:12
#06817:12
#0681c:12120012
#0681c:12
#06812:0000001212000012
#06816:00120012
#07012:12220000
#07018:12
#0701c:0000002200000000
#07016:0000002400000000
#0301b:0000000000130000
#03016:0000000000130000
#03012:0023
#03017:0023
#01114:13000053000000000000005300000000
#01116:0013001300130000
#01112:0000530013005313
#0111a:24242424
#04016:00140014
#0401a:0000001200000000
#04012:2314
#0401c:0000120000121212
#04018:0012
#04017:23
#04010:0041
#04112:1212
#04118:0012120012000000
#0411a:1200000000120000
#0411c:00000012
#04116:0000120000320000
#04114:0000001200000000
#04215:13001300000000130000000000000000
#04218:00130000000013000000000000000000
#0421b:0000130000130000
#04212:00000000001300002300000000000000
#04216:0000000000130000
#04217:0023
#0431a:0014
#04312:0000120000121200
#04314:0000001200000012
#04316:23001214
#04317:00120000
#04319:0000001200000000
#0431b:23
#0441a:14120000
#04412:0012000012001200
#04414:00120000
#0441c:0000001200001200
#04416:1200001214000012
#04418:0012000000000000
#0441f:0011
#0451b:0013
#04517:00000013
#04516:1200001200000000
#04518:12
#0451a:0012000000000000
#0451c:00120000
#04514:0000120000120012
#04512:0012
#04515:00000012
#06712:12000012
#0671a:00120000
#06717:0000001200120000
#0671c:120000000000000000120000000000000000000000001200
#06719:00000012
#0671b:0012000000000000
#06912:120000000000000000000000000000120000000000001200
#0691c:00121212
#06916:0000001200000000
#06914:00121212
#0691a:0000000000120000
#05912:0000001300000000
#0181a:14001414
#01818:0000001200000000
#01812:13000012
#01816:0012
#01814:0000000000120012
#01712:12001313
#01716:00120000
#0171a:14141414
#01715:0000000000130000
#03752:00526300
#03756:00000023
#03758:52
#05852:005c
#01452:64
#0145b:53
#02658:0062
#02657:0000000000000012
#0265c:0000000000000012
#0275a:0012000000000000
#0275c:0000000052000012
#02752:00000000000000000000005200000000
#02757:0000000000000012
#02755:0012000000000000
#0335c:6262
#03358:00000012
#03352:00000012
#03356:00620000
#0015c:52000052
#00158:0000006200000000
#00458:62
#00556:0000005200000000
#00552:00000062
#00856:52
#00758:00000062
#0075c:0000000000000022
#0135c:52
#01358:00520000
#02152:12000062
#02158:12000062
#02256:12
#02258:0000002200000000
#0225c:12520000
#02252:0052
#02257:00000062
#02455:13
#02458:13
#0295c:52
#02952:0014
#0295a:0000000000140000
#02857:0000001252000000
#0285c:00000062000000000000000000000000
#02852:6200001200000000
#03052:00005333
#03057:00005333
#0305b:0000000000230000
#03056:0000000000230000
#0475b:0013000063000000
#04752:0000001400005300
#04756:0014000000000000
#04758:0000001300000000
#0515a:00141414
#05152:00140000
#00252:00620062
#01558:52
#0155c:00520000
#01952:0000620000000022
#01956:62000052
#0195c:0000000000000022
#01958:00000062
#02056:1212
#02058:12
#0205c:0012
#02352:52000013
#0235c:0062
#0235b:00000013
#03652:14000052
#03656:0014
#03852:0013000053003300
#0385b:0013000063004300
#03858:0000000000230000
#03855:0000000000230000
#0465b:0000000000130000
#04656:0000000000140000
#04658:0000000000000013
#04652:0000000000000014
#0525a:14
#05256:00000062
#05252:1452
#05356:00000012
#05358:52
#0535c:00620012
#05752:0014
#0575a:0014
#0615a:00000014
#06155:0000000000160000
#06152:00000014
#0635c:52000052
#06357:0000006200000000
#06658:62
#06652:12
#06452:00620062
#07058:52
#03152:0000000000230000
#03157:0000000000230000
#0315b:4363
#03156:4363
#03256:13
#0325b:13
#03452:0000000000230000
#03457:0000000000230000
#0345b:00006343
#03456:00006343
#0395b:0000000000230000
#03956:0000000000230000
#03952:0053
#03957:0053
#03955:33
#03958:43
#04057:13
#04052:13
#03557:33
#03552:3314
#03556:00000014
#0495c:0000000000000012
#04955:0000000000000012
#05455:0000000000230000
#05458:0000000000230000
#0545b:00006343
#05452:00005333
#0065c:00520052
#0165b:53
#01652:64
#04152:5252
#0415c:00000012
#04158:00520000
#04156:00000012
#0425b:0000000000230000
#04256:0000000000230000
#04252:00005333
#04257:00005333
#04356:43000014
#0435b:43
#0435a:0014
#0455b:0053
#04557:00000023
#04556:62
#0455c:00620000
#0445c:00000062
#04456:0014
#0445a:14
#05552:33
#0555b:43
#05556:0014
#05554:00000014
#06752:62000062
#06757:0000005200000000
#0685c:00520052
#0695c:00000052
#05952:0000002300000000
#05652:14
#05656:0014
#0185a:54
#01852:63
#01752:62
#01756:00620000
#0013c0:12
#001380:00220000
#001380:0000001200000000
#0013c0:0000000000220000
#0013c0:00000012
#001370:000000000000000000000022
#002320:00120000
#002370:0022
#002320:00000012
#003370:22
#004380:12
#0043c0:00220000
#005360:0000001200000000
#005320:0000000000220000
#005320:00000012
#005370:00000000000000000000000000000022
#0063c0:00120000
#006370:0022
#0063c0:00000012
#007370:22
#007380:00000012
#0073c0:0000000000000052
#008380:22
#008361:12
#008321:00220000
#0133c1:12
#013381:0022000000000000
#013381:00120000
#0133c1:0000002200000000
#014321:14
#014381:00240000
#0143b0:13
#014320:00230000
#015380:12
#0153c0:0022000000000000
#0153c0:00120000
#015380:0000002200000000
#0163b0:13
#016350:00230000
#016321:14
#0163a1:00240000
#017321:12
#017361:0022000000000000
#017361:00120000
#017321:0000002200000000
#0183a1:14
#018341:00240000
#018320:13
#0183b0:00230000
#019360:12
#019320:0022000000000000
#019320:00120000
#019360:0000002200000000
#019360:00000012
#019320:0000000000000052
#020360:22
#019381:00000012
#0193c1:0000000000000052
#020381:22
#021321:00000012
#022361:22
#021380:00000012
#0223c0:22
#0223c0:00122200
#022380:0000003200000000
#022321:0012
#022371:0000000000220000
#022371:00000012
#022321:0000000000000022
#023321:12
#023371:00220000
#0233c1:0012
#023371:0000000000220000
#026381:0012
#0263c1:00000022
#0273c1:0012
#027371:00000000000000000000002200000000
#027320:00000000000000000000001200000000
#027370:0000000000000022
#028320:12
#028370:00000022000000000000000000000000
#0283c1:00000012000000000000000000000000
#028371:0000002200000000
#028371:0012
#0283c1:0000000000000022
#0293c1:12
#029371:0000002200000000
#030321:00001323
#030361:0000000000530000
#030370:00001323
#0303b0:0000000000530000
#0313b0:00001323
#031370:0000000000530000
#031361:00001323
#031321:0000000000530000
#0333c1:12
#033381:0022000000000000
#033361:00120000
#033321:0000002200000000
#0333c1:0012
#033381:0000000000322200
#0343b1:00001323
#034371:0000000000530000
#034360:00001323
#034320:0000000000530000
#036320:00000012
#036360:0000000000000022
#037380:12
#0373c0:0022000000000000
#037320:00120000
#037360:0000002200000000
#037320:0013
#037360:00000053
#038320:23
#0383b0:00001323
#038380:0000000000530000
#038321:00001323
#038351:0000000000530000
#039321:00001323
#039361:0000000000530000
#039370:00001323
#0393b0:0000000000530000
#041320:12
#041360:0022000000000000
#041380:00120000
#0413c0:0000002200000000
#041320:0012
#041360:0000000000322200
#042320:00001323
#042360:0000000000530000
#042371:00001323
#0423b1:0000000000530000
#0443c1:00000012
#044381:0000000000000022
#045361:12
#045321:0022000000000000
#0453c1:00120000
#045381:0000002200000000
#0453b1:0013
#045371:00000053
#0463b1:23
#0463b1:0000000013230000
#046381:0000000000001323
#0473b1:1323000000000000
#047381:0000132300000000
#0473b1:0013
#0473a1:0000000000330000
#047371:00000023
#047320:00000013
#047330:0000000000000033
#048360:23
#052320:0012
#052360:0000000000220000
#052360:00000012
#052320:0000000000000022
#053380:12
#0533c0:0022000000000000
#0533c0:00120000
#053380:0000002200000000
#0543b0:00001323
#054350:0000000000530000
#054321:00001323
#054381:0000000000530000
#058321:001c
#059321:0000005300000000
#060321:002c0000
#0633c1:12
#063371:00220000
#063371:0000001200000000
#0633c1:0000000000220000
#0633c1:00000012
#063371:000000000000000000000022
#064321:00120000
#064371:0022
#064321:00000012
#065371:22
#066381:12
#0663c1:00220000
#067321:12
#067371:00220000
#067371:0000001200000000
#067321:0000000000220000
#067321:00000012
#067371:000000000000000000000022
#0683c1:00120000
#068371:0022
#0683c1:00000012
#069371:22
#0693c1:00000012
#069381:000000000000000000000022
#070381:12
#0703c1:00220000
#008970:0000000000130000
#0089b0:00000023
#009970:0013000000000000
#0099b0:00230000
#009970:0000000000130000
#0099b0:00000023
#010970:0013000000000000
#0109b0:00230000
#010960:0000000000130000
#010920:00000023
#011960:0013000000000000
#011920:00230000
#011960:0000000000130000
#011920:00000023
