This file was generated by Ched 2.7.0.0.
#TITLE ""
#ARTIST ""
#DESIGNER ""
#DIFFICULTY 0
#PLAYLEVEL
#SONGID ""
#WAVE ""
#WAVEOFFSET 0
#JACKET ""
#REQUEST "ticks_per_beat 480"
#00002: 4
#BPM01: 138
#00008: 01
#TIL00: ""
#VOLUME: ""
#HISPEED 00
#MEASUREHS 00
#04618:00000014
#04612:0024
#05212:0014
#05218:00000014
#0521f:0021
#00212:0014
#00318:14
#00314:0014
#00814:00000014
#00812:14
#0081a:0024
#00810:0041
#01012:14
#01014:00000014
#0101a:0014
#00912:0014
#0091a:14
#00918:00000014
#01112:0014
#0111a:14
#01118:00000014
#01212:14
#01214:00000014
#0121a:0024
#0131a:1400000000343400
#01314:00140000
#01418:00000014
#01412:0014
#01512:1400000000343434
#01518:00140000
#01614:00000014
#0161a:0014
#01610:0041
#01718:1400000000343400
#01712:00140000
#01818:00000014
#01812:0014
#01914:1400000000343400
#0191a:00140000
#0241a:0014
#02414:00000014
#02410:0041
#0251a:14
#02514:00140000
#02518:0014
#02512:00000014
#02612:00140000
#02618:14
#03212:0014
#03218:00000014
#0321a:24
#03210:0041
#03314:1414
#0331a:00140000
#03312:0000000000340000
#03512:0014
#03518:00000014
#0351a:24
#03612:14
#0361a:0014
#03614:00000014
#03718:1414
#03712:00140000
#04012:0014
#04018:24000014
#04010:0041
#04114:1414
#0411a:00140000
#04112:0000000000340000
#0421a:00001414
#04314:14
#04318:00001414
#04412:14
#0441a:0014
#04414:00000014
#0441f:0011
#04518:1414
#04512:00140000
#04712:14
#04718:00140000
#04714:0014
#0471a:00000014
#04818:0014
#04814:00000014
#04812:24240000
#04918:14002626
#04914:00140000
#04912:0000000000260026
#05314:1400000000340000
#0531a:00140000
#05312:0014
#05310:0041
#0541a:0014
#05414:00000014
#0551a:14
#05512:00140000
#05518:0014
#05514:00000014
#0561a:0014
#05614:00000014
#05618:14
#05612:00140000
#05712:00000014
#0581a:14
#05814:00140000
#05818:0024
#06012:0014
#06018:00000014
#06114:14
#0611a:00140000
#06112:0014
#06118:00000014
#06214:14
#0621a:00140000
#06412:0014
#0651a:14
#0681a:0014
#06912:14
#0041a:14
#0061a:0014
#00714:14
#00718:0014
#02818:0024
#0281a:0000000000343434
#0501a:0024
#05012:0024
#0511a:0024
#03012:0024
#03018:00000024
#03112:24
#0311a:0024
#03114:00000024
#03814:00002424
#0391a:24
#03912:00002424
#0341a:0024
#03414:00000024
#0291a:3434343400000000
#02858:0064
#03354:0064
#03452:14
#03758:0064
#04154:0064
#04558:0064
#05352:0054
#05454:14
#05858:0054
#06652:14
#0525a:14
#0705a:14
#0385a:14
#04252:14
#0465a:14
#000380:0014
#0013a0:34
#001380:0034
#0023a0:24
#004340:0014
#005320:34
#005340:0034
#006320:24
#013380:0014
#0133a0:0000000000343400
#0143a0:24
#015340:0014
#015320:0000000000343434
#016320:24
#0173a0:0014
#017380:0000000000343400
#018380:24
#019320:0014
#019340:0000000000343400
#020340:24
#0203a0:0014
#021380:24
#021320:0014
#022340:24
#022380:0014
#0233a0:24
#023340:0014
#024320:24
#026380:0014
#0273a0:24
#027340:0014
#028320:24
#028380:0014
#0283a0:0000000000343434
#0293a0:3434343424000000
#033340:0014
#033320:0000000000343400
#034320:24
#037380:0014
#0383a0:24
#041340:0014
#041320:0000000000343400
#042320:24
#045380:0014
#0463a0:24
#0513a0:0014
#051380:00000034
#0523a0:24
#053320:0014
#053340:0000000000343400
#054340:24
#057380:14
#0573a0:0024
#058380:0014
#0603a0:24
#062340:0014
#063320:24
#063380:0014
#0643a0:24
#065340:0014
#066320:24
#0663a0:0014
#067380:24
#067320:0014
#068340:24
#069380:0014
#0703a0:24
