This file was generated by Ched 2.7.0.0.
#TITLE ""
#ARTIST ""
#DESIGNER ""
#DIFFICULTY 0
#PLAYLEVEL
#SONGID ""
#WAVE ""
#WAVEOFFSET 0
#JACKET ""
#REQUEST "ticks_per_beat 480"
#00002: 4
#BPM01: 192
#00008: 01
#TIL00: ""
#VOLUME: ""
#HISPEED 00
#MEASUREHS 00
#00315:13
#00318:13
#00512:13
#00515:0013
#00612:13
#00616:0013
#00717:00131313
#00819:00131313
#0081b:23
#0091b:23131313
#0101b:1353
#01015:0013
#01012:0000130000000053
#01019:0053005300005300
#01017:00530000
#0101a:0000000000530000
#01018:0000000000000053
#01014:0000000000530000
#01013:00000053
#0111b:00130000
#01116:00130000
#01114:0013
#01119:0013
#01117:00000013
#01112:00000013
#01110:41
#0121b:13
#01216:13
#01312:00130000
#01317:00130000
#01319:0013
#01314:0013
#01316:00000013
#0131b:00000013
#01412:1300000000130000
#01417:13
#01418:00000013
#0141b:0000000000000013
#01414:0000000000000024
#01515:0000130000130000
#01518:0000002400001300
#0151b:0013000000000013
#01512:0000001300000024
#01618:0013000000130013
#01615:00130013
#01612:0000001300000024
#0161a:0000002400000000
#01715:0013001300001300
#01718:0000130000130000
#0171a:0000002400000024
#01712:0000000000000024
#01815:0012120000000000
#01819:0012120000000000
#02019:00130013
#0201b:0013
#02016:0000001300000000
#02012:13
#02014:00000013
#0221b:13
#02214:00130013
#02212:0013
#02217:0000001300000000
#02219:00000013
#01917:0000000000000013
#01914:23131313
#0191b:0013
#01910:41
#0231b:0000000000000013
#02314:23131313
#02317:0013
#02416:13
#02412:0000001300001300
#02417:0013
#02419:0000130000000013
#02116:0000000000000013
#02119:23131313
#02112:0013
#02512:0000000000000013
#02519:23131313
#02516:0013
#02617:13
#0261b:0000001300001300
#02616:0013
#02614:00130000
#02612:00000013
#02715:0013000000130000
#02718:23130013
#0271b:0000001300000013
#02712:2313
#02710:41
#02812:13000013
#0281b:00130000
#02816:00000033130000000000000000000000
#02817:00000013
#02818:13
#02918:0013000000130000
#02915:23130013
#02912:0000001300000013
#0291b:2313
#0301b:1300003300001300
#03012:00130000
#03017:0033130000000000
#03016:0000003300001300
#03015:13
#0311b:0013001300000000
#0311b:0013000000000000
#03115:00131313
#03118:2300000000000013
#03112:23
#03212:13130013
#03217:00130013
#03215:0013000000000000
#0321b:13
#03312:0013001300000000
#03312:0013000000000000
#03318:00131313
#03315:2300000000000013
#0331b:23
#0341b:13130000
#03416:00130000
#03418:0013000000000000
#03412:13
#03415:0000000000001424
#0341a:0000000000001424
#0341f:11
#03414:0000003300000000
#03419:0000003300000000
#03512:0014001400000014
#03517:00140000
#0351a:00001414
#03515:0000000000140000
#03617:14
#03612:0014000024000000
#0361a:00142400
#03615:0000001400000000
#03718:14
#0371a:0014000000140000
#03714:00140000
#03712:0000001400000014
#03717:0014
#03715:00000014
#03816:14140000
#0381a:0014000024000000
#03812:0000001424000000
#0391a:14
#03912:0014000000000000
#03919:00140000
#03913:0000001400000000
#03918:0014
#03914:0000000000140000
#03917:00000014
#03915:0000000000000014
#04017:14140000
#04015:0014001400000000
#0401a:0024
#04012:0024
#04112:1313
#04117:1313
#04119:0013000000130000
#04116:00130013
#0411b:00130013
#04114:0000001300000013
#04215:00140000
#04212:2414
#04217:2424
#04416:00000013
#0441b:2300000000000013
#04417:00230000
#04412:0023230000000000
#04410:41
#04316:23131313
#0431b:23232323
#0431f:21
#04517:2300130013001313
#04512:23232323
#04612:2300000000130000
#04618:00000013
#04615:0000000000000013
#04616:00230000
#0461b:0023230000000000
#0461b:00230000
#04716:00000014000000000000000000000000
#04712:1400001400000000
#0471a:14000024
#04714:0000000000000024
#04916:0013
#0491b:00131313
#04912:24
#04917:24
#05012:1400000000000023
#0501b:0000130013000023
#05015:0000000000130000
#05018:00000013
#05016:00130000
#05017:24
#0481a:00240014
#04818:24
#04812:0024000024000000
#05112:0013
#05115:00130013
#05118:0023
#0511b:00230023
#05212:1300000000000023
#05215:0013002300001300
#05218:2300130000130000
#0521b:0000001300000023
#0531b:0013
#05318:00130013
#05315:0023
#05312:00230023
#0541b:1300000000130000
#05418:0013002300000000
#05415:2300130000130000
#05412:0000001300000023
#05417:0000000000000013
#05517:0013000000130000
#05512:0000002300000023
#05519:00000053000000000000005300000000
#0551b:00530053
#05616:0000001300130000
#05614:00000013
#05612:0000000000000013
#05617:0013000000000023
#05619:00130000
#0561b:0000002300000000
#05716:0013002300000000
#0571b:00130000
#05717:0000000000130023
#05712:00000013
#0581b:00130000000000000000000053002300
#05812:0000130013000013
#05817:0013
#05813:00000000000000000053000000000000
#05814:0000000000530000
#05815:00000000000000000000005300000000
#05816:00000053
#05818:00000000000000000053000000000000
#05819:0000000000530000
#0581a:00000000000000000000005300000000
#06012:0013002300000000
#06017:0000131300000000
#0601b:0000000000130023
#06016:00000013
#05915:0013000000001300
#05918:0000130000130000
#05912:0000002300000013
#0591b:0000001300000023
#06217:00130000000000000000000053000000
#0621b:0000000013000013
#06216:0013
#06212:0000130000005323
#0621a:00000000000000000053000000000000
#06219:0000000000530000
#06218:00000000000000000000005300000000
#06215:00000000000000000053000000000000
#06214:0000000000530000
#06213:00000000000000000000005300000000
#06112:0013002300000000
#06117:00130000
#0611b:0000000000130013
#06116:00000013
#0641b:0013002300000000
#06416:0000131300000000
#06412:0000000000130023
#06417:00000013
#06318:0013000000001300
#06315:0000130000130000
#0631b:0000002300000013
#06312:0000001300000023
#0651b:0013002300000000
#06516:00130000
#06512:0000000000130013
#06517:00000013
#06617:0013
#06616:00230013
#06612:0023
#0661b:00000023
#0661a:00240000
#06610:41
#06718:0013000000130000
#06712:23131324
#0671b:13131300
#06715:0000001300000000
#06717:0000000000000024
#06816:0013
#06818:0000000000000013
#0681b:00002313
#06812:00240023
#06915:0013000000130000
#06912:13131323
#0691b:23
#0691a:00000024
#07012:0013
#07017:0013
#07016:00000013
#0701a:24
#0701b:00000023
#07212:2414
#07217:0013
#07216:00130000
#0721a:00240024
#0731b:0013001300000000
#07316:00130014
#07312:0000000000140024
#0731a:0000000000000024
#07416:0013
#07417:00000013
#0741a:0024
#07412:00240024
#07515:0013000000130024
#0751b:00131300
#07512:13131300
#07518:0000001300000000
#0751a:24000024
#07617:0013
#07615:0000000000000013
#07612:00002413
#0761a:00240024
#07718:0013000000130000
#0771b:13131323
#07712:24000024
#0781b:0013
#07816:0013
#0781a:00000014
#07812:24000024
#08016:0013
#0801a:14000014
#08017:00140000
#08012:00240024
#08612:0013
#08618:0000000000130000
#08615:23000013
#0861a:00240024
#08712:1413
#08716:00130000
#08719:0000000000130000
#08715:00000013
#08717:0013
#0871a:00240024
#07116:00130013
#07112:2414
#07117:0013
#0711a:00240000
#0711a:00240000
#0711b:00000023
#0791a:14000014
#07916:0013
#07917:00140000
#07912:00240024
#08115:0000000000000013
#08118:00000000000000000000000000000013
#0811a:14000014
#08116:0013
#08117:00140000
#08112:00240024
#08812:1413
#08816:00130000
#08819:0000000000130000
#08815:00000013
#08818:0000000000000013
#08817:0013
#0881a:00240024
#08215:2313
#0821a:00240014
#08218:0000000000130000
#08212:00000024
#08210:41
#08315:13000000000000000000130000000013
#08318:0000000013000013
#08312:00140024
#0831a:00240014
#08418:2313
#08415:0000000000130000
#08412:00240014
#0841a:00000024
#08518:13000000000000000000130000000013
#08515:0000000013000013
#0851a:00140024
#08512:00240014
#08918:0013001300130000
#08912:14000000000000000000000000000000000000000000000000000000000000001300000000000000000000000000000000000000000000000000005300000000
#08915:0000130000000053
#0891a:00240024
#08914:00000000000000000000000000000000000000000000000000000000000000000000000000000000000000000000000000000000000000000053000000000000
#08913:0000000000000000000000000000000000000000000000000000000000530000
#00218:00000000000000000000002300000000
#00355:53
#00358:53
#00552:53
#00555:0023
#00652:53
#00656:0023
#0075b:13
#0085b:13
#0095b:13
#01058:0000000000000013
#01052:0000000000000013
#0125b:6300000000000013
#01256:6300000000000013
#01257:0000001300000000
#01252:0000001300000000
#01452:53
#01457:53
#01454:0000000000000014
#01456:0000001300000000
#0145b:0000001300000000
#01552:0000000000000014
#01558:0000001400000000
#0165a:0000001400000000
#01652:0000000000000014
#0175a:0000001400000000
#0205b:0013
#02052:13
#02252:0013
#0225b:13
#02456:13
#02457:0013
#0195b:0063
#02357:0053
#02152:0053
#02657:13
#02656:0013
#02556:0063
#02852:6313
#0285b:00630000
#02856:00630000
#02857:0013
#0305b:5313
#03052:00530000
#03057:00530000
#03056:0013
#03252:53530000
#03257:00530000
#03255:0023000000000000
#0325b:1313
#03256:0013
#0345b:63630000
#03456:00630000
#03458:0023000000000000
#03452:1313
#03457:0013
#03455:0000000000000014
#0345a:0000000000000014
#03652:0014
#0365a:0014
#0385a:0014
#03852:0014
#0405a:0014
#04052:0014
#04255:00240000
#04252:5454
#04257:4454
#0435b:13131313
#04552:13131313
#04756:00000024000000000000000000000000
#04752:0000001400000000
#0475a:5400001400000000
#0485a:00140054
#04852:0014
#04952:54
#04956:0023
#04957:14
#05052:5400000000000013
#05056:00230000
#05057:14
#0505b:0000000000000013
#0525b:0000001300000013
#05255:0000001300000000
#05252:0000000000000013
#05657:0000000000000053
#05756:0000006300000000
#05757:0000000000000053
#0585b:00230000000000000000000000000000
#06257:00230000000000000000000000000000
#06656:00130000
#06952:00000063
#07056:00130000
#0705a:00140000
#0705b:00000053
#0735b:0000001300000000
#0735a:0000000000000054
#0775b:00000053
#07857:00130000
#07852:00140064
#07457:00130000
#07152:14
#0715b:00000053
#06857:00140000
#08752:14
#08757:13
#0875a:00000054
#07655:00140000
#08255:00130000
#0825a:00140000
#08852:14
#08857:13
#08452:00140000
#08458:00130000
#08655:00130000
#0865a:00140054
#08952:14
#07252:14
#0795a:54
#07957:00240000
#07952:00000064
#0805a:54
#08057:00240000
#08052:00000064
#0815a:54
#08157:00240000
#0615b:0000000000000063
#06552:0000000000000063
#000350:00000000000000000000001300000000
#003350:33
#005320:33
#005350:0053
#006320:33
#006360:0053
#007320:33000000000000000000000000000000000000000000000000000000000000000000000000000000000000000000000000000000000000000000000000000053
#008320:35000000000000000000000000000000000000000000000000000000000000000000000000000000000000000000000000000000000000000000000000000055
#009320:37
#010320:27
#002381:00000000000000000000001300000000
#003381:33
#0053b1:53
#0073b1:23
#0123b0:13
#012370:0000002300000000
#012361:13
#012321:0000002300000000
#012361:0000000000130023
#0123b0:0000000000130023
#014320:13
#014360:0000002300000000
#014371:13
#0143b1:0000002300000000
#018371:0000000000000000000000000000000012525252525252522200000000000000
#018361:00000000000000000000000000000000000000000000000000000000000000000054005400540054005400540054005400000000000000000000000000000000
#0193b1:1333
#019391:0033003300000000
#019371:00330023
#021321:1333
#021341:0033003300000000
#021361:00330023
#023371:1333
#023391:0033003300000000
#0233b1:00330023
#025361:1333
#025341:0033003300000000
#025321:00330023
#028321:1323
#028361:00000033330000000000000000000000
#0283b0:00130000
#028370:0023
#0303b0:1300003323000000
#030370:0033330000000000
#030321:00130000
#030361:0000003323000000
#0313b1:00001323
#032321:13330000
#032351:0053000000000000
#032361:0023
#032370:00130000
#0323b0:0023
#033320:00001323
#0343b0:13330000
#034380:0033000000000000
#034390:0000003300000000
#034370:0023
#034361:00130000
#034341:0000003300000000
#034321:0023
#042321:1434
#042351:00540024
#042370:0014
#0423a0:00000024
#044370:00130000
#0443b0:0023
#044321:00130000
#044361:0023
#046361:00130000
#046321:0023
#0463b0:00130000
#046370:0023
#0473a0:1400002400000000
#047360:00000054000000000000000000000000
#0483a0:00000014
#049370:24
#049321:14
#049361:0053
#050321:3424
#050361:00530000
#054321:0000000000000013
#055321:0023000000000000
#055321:0000001300230000
#055321:0000000000000013
#056321:0023000000000000
#0563b1:0000001300230000
#056371:0000000000000013
#0573b1:0023000000000000
#057361:0000001300000000
#057321:0000000000230000
#057371:0000000000000013
#0583b1:00530000000000000000000000000000
#058371:00230000
#0583b1:0000000000000013
#0593b1:0023000000000000
#059321:0000001300230000
#0593b1:0000000000000013
#060371:0023000000000000
#060321:0000001300000000
#060361:0000000000230000
#0603b1:0000000000000013
#061371:0023000000000000
#061321:0000001300000000
#061361:0000000000230000
#0613b1:0000000000000013
#062371:00530000000000000000000000000000
#0623b1:00230000
#062321:0000000000000013
#063321:0023000000000000
#0633b1:0000001300230000
#063321:0000000000000013
#064361:0023000000000000
#0643b1:0000001300000000
#064371:0000000000230000
#064321:0000000000000013
#065361:0023000000000000
#0653b1:0000001300000000
#065371:0000000000230000
#065321:0000000000000013
#066361:00230000
#067371:0000000000000014
#068371:00240000
#0693b1:00132300
#069321:00000013
#070361:53230000
#0703a0:14240000
#0703b0:00000013
#071370:23
#0713b0:00000013
#072370:23
#072360:0000000000000013
#073360:0023000000000000
#0733a0:0000000000000014
#074370:00230000
#075350:0000000000000014
#076350:00240000
#077320:00132300
#0773b0:00000013
#078370:53230000
#078321:14240000
#078321:00000014
#079351:24
#0793a0:1424
#079370:00540000
#079320:00000014
#080350:24
#0803a1:1424
#080371:00540000
#080321:00000014
#081351:24
#0813a0:1424
#081370:00540000
#082350:13230000
#084380:13230000
#086350:13230000
#0863a0:00000014
#087370:23
#0873a0:00000014
#088370:23
#089350:0000000000001323
#0109b0:1353
#010990:0053005300005300
#010970:00530000
#0109a0:0000000000530000
#010980:0000000000000023
#010951:0013
#010921:0000000000000023
#055971:0013000000000000
#0559b1:00230000
#055971:0000000000130000
#0559b1:00000023
#058921:0013
#058961:00000023
#058970:0013
#0589b0:00000023
#0629b0:0013
#062970:00000023
#062961:0013
#062921:00000023
#089951:0000000000000013
#089921:00000000000000000000000000000000000000000000000000000000000000000000000000000000000000000000000000000000000000000000002300000000
