This file was generated by Ched 2.7.0.0.
#TITLE ""
#ARTIST ""
#DESIGNER ""
#DIFFICULTY 0
#PLAYLEVEL
#SONGID ""
#WAVE ""
#WAVEOFFSET 0
#JACKET ""
#REQUEST "ticks_per_beat 480"
#00002: 4
#BPM01: 192
#00008: 01
#TIL00: ""
#VOLUME: ""
#HISPEED 00
#MEASUREHS 00
#01418:00000013
#01412:13
#0141b:0000000000130000
#01415:0000000000000023
#01512:0013002300000000
#01518:00130000
#0151b:0000000000130023
#01515:00000013
#01612:0013000000000024
#01615:00130000
#0161a:0000000000140000
#01616:00000014
#01618:0000002300000000
#0201b:00131300
#02015:0000001300000000
#02012:13
#02218:0000001300000000
#0221b:13
#02212:0013
#02712:0013000000130000
#02715:0000130000000013
#02718:0000001300001300
#0271b:0013
#02710:41
#00317:13
#00312:13
#00516:13
#0051b:13
#00617:13
#00612:13
#00716:13
#0071b:13
#00717:0013
#00712:0013
#00816:13
#0081b:13
#00817:0013
#00812:0013
#00916:13
#0091b:13
#01017:14
#01012:14
#01112:00130000
#01118:0013
#01115:00000013
#01110:41
#0121b:13
#01212:0000000000130023
#01217:0000000000000023
#0131b:00130000
#01315:0013
#01318:00000013
#01718:0014000000000000
#01712:0000140000000024
#01714:0000000000140000
#0171a:0000002400001400
#01912:00000013
#01918:0000000000000013
#0191b:1353
#01910:41
#01919:0053005300000000
#01917:00530000
#0211b:00000013
#02115:0000000000000013
#02112:1353
#02114:0053005300000000
#02116:00530000
#02312:00000013
#02318:0000000000000013
#0231b:1353
#02319:0053005300000000
#02317:00530000
#02412:13
#0241b:00131300
#02415:0000001300001300
#02418:0000000000000013
#0261b:13000013
#02618:0000333313000000
#0291b:0013000000130000
#02918:0000130000000013
#02915:0000001300001300
#02912:0013
#03112:0013000000001300
#0311b:0000001300000000
#03115:0013
#03118:0000000000130013
#03318:0013000000000000
#03312:00130000
#0331b:0000001300001300
#03315:0000000013000013
#0351b:0013001300130013
#03515:00131313
#03615:13130000
#0361b:0013001300000000
#03612:0024
#03712:0013001300130013
#03718:13131313
#03818:13130000
#03812:0013001300000000
#0381a:0024
#03912:13131313
#0391b:0013001300130013
#04012:13130000
#0401b:0013001300000000
#04014:0024
#04118:13131313
#04115:0013001300130013
#04418:00000013
#04415:0000000000000013
#04414:24
#04410:41
#04413:0064000000000000
#04412:00640000
#04615:0000000000130000
#04618:24000013
#0461b:0000000000000013
#04619:0064000000000000
#0461a:00640000
#04716:13
#0471a:00000024
#04712:0000000000000024
#0481a:24240014
#04817:0014
#04812:0024000000000000
#04916:0000001400000000
#0501a:14
#05215:13
#05218:0013000000000000
#05212:0000140000000024
#05418:13130000
#05415:0013000000000023
#0541b:0000000000000023
#0561b:0000000000000013
#05615:0000000000000023
#05618:0000002300000000
#05612:0000002300000000
#0571b:0000000000000013
#05712:0000002300000000
#05818:0000000013000023
#05812:0000000023000023
#06215:0014
#0621a:0024
#06217:0000000000000024
#06212:0000000000000024
#06617:0014
#06615:00000014
#06612:0024
#0661a:00240024
#06610:41
#06718:0013000000130000
#06715:00130000
#0671b:0000001300000000
#06712:1313
#0671a:0000000000000014
#06714:00000014
#06817:00140014
#06815:0014
#06812:00240024
#0681a:0024
#06915:0013000000130000
#06918:00130014
#06912:0000001300000000
#0691b:1313
#07012:14
#07017:0000000000140000
#0701a:00240000
#07116:0014
#0711a:14
#0721a:14
#0741a:0014
#07412:00140014
#07417:00240024
#07415:0024
#07515:0013000000130000
#07518:00130014
#07512:0000001300000014
#0751b:1313
#07718:0013000000130000
#07715:00130000
#0771b:0000001300000000
#07712:1313
#07714:00000014
#0781a:14
#07815:0000000000140000
#07812:00240000
#07915:0015
#07912:15
#08012:16
#08016:0016
#08112:16
#08116:0016
#08215:00001313
#08218:0000000000130000
#0821a:00240000
#08210:41
#0831a:14
#08312:00131300
#08318:0000001300000000
#08418:00001313
#08415:0000000000130000
#08412:00240000
#08512:14
#0851b:00131300
#08515:0000001300000000
#08617:0000000000140000
#0861a:00240000
#08716:0015
#08719:15
#08818:16
#08814:0016
#08918:16
#08914:0016
#0761a:00140014
#07612:0014
#07615:00240024
#07617:0024
#06412:0000000000000014
#06417:0000000000000024
#06415:0000002400000000
#0641a:0000002400000000
#06512:0000000000000014
#0651a:0000002400000000
#06012:0000000000000013
#06018:0000000000000023
#06015:0000002300000000
#0601b:0000002300000000
#06112:0000000000000013
#0611b:0000002300000000
#03215:0013
#0321b:0013
#03212:00000013
#03218:00000013
#03418:0000000013000023
#03412:0000000013000023
#0341b:00000000000000000000001300000000
#03415:00000000000000000000001300000000
#0341f:11
#02815:0013
#0281b:0013
#03018:0013
#03012:0013
#02512:1353
#02518:00000013
#02515:0000000000000013
#02514:0053005300000000
#02516:00530000
#00217:00000000000000000000002300000000
#04218:23
#04215:0023
#04318:00230000
#04315:0023
#0431b:00000023
#0431f:21
#0451b:23
#04515:00230000
#04518:0023
#04512:00000023
#05112:00240000
#05116:0024
#0511a:00000024
#0531a:00240000
#05316:0024
#05312:00000024
#06315:0000002400000000
#0631a:0000002400000000
#06317:0000000000000024
#06312:0000000000000024
#05518:0000002300000000
#05512:0000002300000000
#05515:0000000000000023
#0551b:0000000000000023
#05915:0000002300000000
#0591b:0000002300000000
#05918:0000000000000023
#05912:0000000000000023
#07312:0000000000000024
#03652:0014
#00352:63
#00357:63
#00556:53
#0055b:53
#00657:63
#00652:63
#00756:53
#0075b:53
#00757:0023
#00752:0023
#00856:53
#0085b:53
#00857:0023
#00852:0023
#00956:53
#0095b:53
#01057:24
#01052:24
#0105a:0000000000000014
#01055:0000000000000014
#0125b:53
#01257:0000001300000000
#01452:63
#01456:0000001300000000
#0205b:0053
#02252:0053
#0265b:53000023
#02658:0053
#03458:0000000063000013
#03452:0000000063000013
#0345b:00000000000000000000002300000000
#03455:00000000000000000000002300000000
#0385a:0014
#04054:0014
#04258:63
#04255:0063
#04352:13
#04355:0013
#04358:00130000
#0435b:00000013
#04555:00130000
#04558:0013
#04552:00000013
#0455b:13
#04752:0000001300000000
#04756:63
#0485a:00640064
#04857:0064
#0505a:6400000000000014
#04956:0000002400000000
#05252:0000640000000014
#0565b:0000000000000063
#05752:0000006300000000
#0575b:0000000000000063
#07057:0000000000240000
#0705a:00540000
#07156:0024
#0715a:64
#0725a:64
#07352:0000000000000014
#07855:0000000000240000
#07852:00640000
#07955:0025
#07952:55
#08052:56
#08056:0026
#08152:56
#08156:0026
#08657:0000000000240000
#0865a:00540000
#08756:0025
#08759:65
#08858:66
#08854:0026
#08958:6600000000000046
#08954:0026
#07754:00000014
#07552:0000000000000014
#06958:00000014
#0675a:0000000000000014
#06452:0000000000000054
#06552:0000000000000054
#0655a:0000005400000000
#06052:0000000000000053
#06152:0000000000000053
#0615b:0000005300000000
#03255:0053
#0325b:0053
#03252:00000023
#03258:00000023
#02855:0053
#0285b:0053
#03058:0063
#03052:0063
#000320:00000000000000000000001300000000
#003320:33
#005360:33
#006320:33
#007360:33
#007320:0053
#008360:33
#008320:0053
#009360:33
#010320:54
#010350:0000000000000024
#002371:00000000000000000000001300000000
#003371:33
#0053b1:33
#006371:33
#0073b1:33
#007371:0053
#0083b1:33
#008371:0053
#0093b1:33
#010371:54
#0103a1:0000000000000024
#0123b1:13
#012371:0000002300000000
#014321:13
#014361:0000002300000000
#017321:0000000000000014
#018321:0024
#0203b1:0013
#020371:00000023
#022321:0013
#022361:00000023
#0263b1:13000053
#026381:0000333333000000
#027381:23
#0283b1:1333
#029381:23
#028350:00133300
#029320:23
#030320:1333
#031350:23
#030381:00133300
#0313b1:23
#032351:1333
#032321:00000053
#033351:23
#0323b0:00133300
#032380:00000053
#0333b0:23
#034380:1300000033000023
#0343b0:00000000000000000000005300000000
#034321:0000130033000023
#034351:00000000000000000000005300000000
#042381:13
#0423b1:0023
#042350:0013
#043320:23
#047360:13
#047320:0000002300000000
#0483a0:00140034
#048370:0034
#049360:0000005400000000
#0503a0:3400000000000024
#050360:0000000000340000
#050380:00000034
#052320:0000140000000024
#052360:0000000000340000
#052340:00000034
#054320:0000001400240000
#054350:0000000000000013
#055320:5323000000000000
#0543b1:0000000000000013
#055381:5323000000000000
#055381:0000001300000000
#0553b1:0000000053230000
#055320:0000001300000000
#055350:0000000053230000
#055350:0000000000000013
#056320:5323000000000000
#0553b1:0000000000000013
#056381:5323000000000000
#056381:0000001300000000
#0563b1:0000000053230000
#056320:0000001300000000
#056350:0000000053230000
#0563b0:0000000000000013
#057380:0033332300000000
#057321:0000001300000000
#057351:0000000000333323
#0573b0:0000000000000013
#058380:00230000
#058380:0000000000000013
#0593b0:5323000000000000
#058321:0000000000000013
#059351:5323000000000000
#059351:0000001300000000
#059321:0000000053230000
#0593b0:0000001300000000
#059380:0000000053230000
#059380:0000000000000013
#0603b0:5323000000000000
#059321:0000000000000013
#060351:5323000000000000
#060351:0000001300000000
#060321:0000000053230000
#0603b0:0000001300000000
#060380:0000000053230000
#060320:0000000000000013
#061350:0033332300000000
#0613b1:0000001300000000
#061381:0000000000333323
#061320:0000000000000013
#062350:00240000
#062370:0000000000000014
#0633a0:5424000000000000
#062321:0000000000000014
#063351:5424000000000000
#063351:0000001400000000
#063321:0000000054240000
#0633a0:0000001400000000
#063370:0000000054240000
#063370:0000000000000014
#0643a0:5424000000000000
#063321:0000000000000014
#064351:5424000000000000
#064351:0000001400000000
#064321:0000000054240000
#0643a0:0000001400000000
#064370:0000000054240000
#064320:0000000000000014
#065360:0034342400000000
#0653a1:0000001400000000
#065361:0000000000343424
#065320:0000000000000014
#066350:00240000
#0703a0:00140000
#070370:0000000000540000
#0713a0:34
#071360:0054
#0723a0:34
#072360:0000000000000024
#072321:0000000000000014
#073321:0034000000000024
#073341:00340034
#073361:0000003400340000
#078321:00140000
#078351:0000000000540000
#079321:35
#079351:0055
#080321:36
#080361:0056
#081321:36
#081361:0056
#082321:26
#0833a1:00000014
#0843a1:24
#085321:00000014
#086321:24
#0863a1:00140000
#086371:0000000000540000
#087391:35
#087361:0055
#088381:36
#088341:0056
#089381:3600000000000026
#089341:0056
#0199b0:1323
#019970:00530000
#021920:1323
#021960:00530000
#0239b0:1323
#023970:00530000
#025920:1323
#025960:00530000
#044940:14
#044920:00240000
#046980:14
#0469a0:00240000
