This file was generated by Ched 2.7.0.0.
#TITLE ""
#ARTIST ""
#DESIGNER ""
#DIFFICULTY 0
#PLAYLEVEL
#SONGID ""
#WAVE ""
#WAVEOFFSET 0
#JACKET ""
#REQUEST "ticks_per_beat 480"
#00002: 4
#BPM01: 220
#00008: 01
#TIL00: ""
#VOLUME: ""
#HISPEED 00
#MEASUREHS 00
#0041a:14
#00514:14
#0061a:14
#00714:14
#00818:14
#00912:14
#01018:14
#01112:14
#0121a:14
#01210:41
#0131a:14
#01414:14
#01514:14
#01618:14
#01718:14
#01812:14
#01912:14
#02612:14
#0271a:14
#02812:14
#03012:0016
#03018:26
#03010:41
#03118:16
#03112:0016
#03218:16
#03212:0016
#03412:1616
#03518:1616
#03612:1616
#03718:1616
#03818:0016
#03812:26
#03912:16
#03918:0016
#04012:16
#04018:0016
#04218:1616
#04210:41
#04312:1616
#04418:1616
#04512:1616
#05018:16
#05012:0016
#05118:16
#06718:14
#08012:0016
#08018:26
#0801f:21
#08118:16
#08112:0016
#08110:41
#08218:16
#08212:0016
#08412:1616
#08518:1616
#08612:1616
#08718:1616
#09212:16
#09218:0016
#09312:16
#09418:16
#09412:0016
#09518:16
#10012:16
#10018:0016
#10112:16
#10118:0016
#10618:14
#10418:14
#10514:14
#0691f:000000000011000000000000
#06914:000000000034000000000000
#05414:34
#05313:34
#05818:34
#05719:34
#06810:41
#05610:41
#02852:54
#0003a0:14
#0013a0:24
#002320:14
#003320:24
#020380:14
#021380:24
#022340:14
#023340:24
#024380:14
#025380:24
#028320:14
#029340:24
#033380:1626
#041320:1626
#046380:16
#047380:26
#048320:16
#049320:26
#052320:14
#053330:34
#054340:34
#055340:24
#0563a0:14
#057390:34
#058380:34
#059380:24
#060340:14
#061340:0024
#062380:15
#063380:0025
#064320:16
#065320:0026
#068340:14
#069340:000000000034000000000000
#071320:26
#072380:14
#0733a0:54
#074380:54
#0753a0:24
#076340:14
#077320:34
#078340:34
#079320:24
#083380:1626
#088320:16
#089320:26
#090380:16
#091380:26
#096320:1626
#097380:1626
#098320:1626
#099380:1626
#102320:16
#103320:0026
#107340:00000014
#108340:00000024
