This file was generated by Ched 2.7.0.0.
#TITLE ""
#ARTIST ""
#DESIGNER ""
#DIFFICULTY 0
#PLAYLEVEL
#SONGID ""
#WAVE ""
#WAVEOFFSET 0
#JACKET ""
#REQUEST "ticks_per_beat 480"
#00002: 4
#BPM01: 220
#00008: 01
#TIL00: ""
#VOLUME: ""
#HISPEED 00
#MEASUREHS 00
#00715:00000013
#00818:1313
#00815:00000013
#0081b:00130000
#0101b:13000013
#01015:00130000
#01018:0013
#01012:13
#03515:13130000
#03518:00001313
#0351b:23230000
#03512:00002323
#05018:1415
#05014:00140000
#05013:00000015
#05214:00141400
#0521a:24
#05218:00000024
#05312:14140000
#05314:00000014
#0531a:0024
#05414:14
#05412:00001414
#05418:00240000
#05514:00140000
#05518:000000000000145454545454
#0551a:24
#05618:00141400
#05612:24
#05614:00000024
#05610:41
#0571a:14140000
#05718:00000014
#05712:0024
#05818:14
#0581a:00001414
#05814:00240000
#06412:0000001300000000
#06418:23
#0641b:0000002300000000
#06415:00000023
#0981b:00000013
#09816:0024
#09812:24
#09915:13
#09918:000000000033000013000000
#0991b:00130000
#10412:0014
#1041a:0014
#10415:00230000
#10418:00000023
#1051a:1414
#10512:1414
#10515:00230000
#10518:00000023
#00412:0013
#00415:130000000000000033000013
#00418:00130000
#0051b:0013
#00518:00000013
#01115:000000000013000000000000
#01618:000000000000000000000013
#01615:1313
#01612:00130000
#03115:13
#03118:00130000
#0311b:000000000033000013330000
#03212:000000000000000000000013
#03215:130000133300
#03218:00130000
#06512:0013000000000013
#06518:0023
#0651b:0023000000000023
#07813:00130000
#07812:13
#07815:00000013
#07814:0013
#07817:23
#07818:00230000
#07819:0023
#0781a:00000023
#09612:14
#09616:0014
#10612:14
#1061a:14
#04718:13130000
#04712:0024
#04818:13
#04815:00130000
#04812:00000024
#0481a:0024
#0491b:0013
#04912:0013
#00615:13
#00618:000000000013000000000000
#00912:13
#00918:00000013
#0121b:0013
#01218:130000000000000033000013
#01215:00130000
#01210:41
#01312:0013
#01315:00000013
#01418:13
#01415:000000000013000000000000
#01412:000000000000000000330013
#01518:00000013
#01718:0013
#01715:00000013
#0181b:000000000013000000000000
#01812:000000000013000000000000
#01915:00000013
#01918:000013
#03718:00130000
#0371b:000000000033130000000000
#03715:00130000
#03712:000000000033130000000000
#04615:130000000000000000000013
#0461a:0024
#07916:13
#0791b:23
#09214:14
#09218:00140015
#09213:0015
#07415:13
#07218:13
#07512:13
#07514:0033
#0731b:13
#09418:1415
#09414:00140000
#09413:00000015
#09716:0014
#0971a:24
#10212:16
#10218:26
#02118:00000013
#0211a:0014
#02116:00140000
#02112:14
#02115:000013
#0201a:1414
#02012:00140000
#02315:00000013
#02312:0014
#02316:00140000
#0231a:14
#02318:000013
#02212:1414
#0221a:00140000
#02518:00000013
#0251a:0014
#02516:00140000
#02512:14
#02515:000013
#0241a:1414
#02412:00140000
#02612:13
#02615:000000000023000000000000
#0271b:13
#02718:000000000023000000000000
#02812:13
#0281b:13
#02815:000000000023000000000000
#02818:000000000023000000000000
#03017:0014
#03015:24
#03010:41
#03315:000000000013000000000000000000000000000000000000
#03618:00130000
#03615:0013
#03612:00000013
#0361b:23
#04318:13130000
#04315:00001313
#04312:23230000
#0431b:00002323
#03918:13
#03915:00130000
#03912:000000000033000013330000
#0401b:000000000000000000000013
#04018:230000233300
#04015:00230000
#04515:00130000
#04512:000000000033130000000000
#04518:00130000
#0451b:000000000033130000000000
#03815:0014
#03817:24
#04118:000000000013000000000000000000000000000000000000
#04415:00130000
#04418:0013
#0441b:00000013
#04412:23
#0601a:14000014
#06017:000000000014000000000000
#06212:14000014
#06215:000000000014000000000000
#07714:13
#07718:0013
#07619:0013
#08915:13130000
#0891a:0024
#09015:13
#09018:00130000
#0901a:00000024
#09012:0024
#09112:0013
#0911b:0013
#08515:13130000
#08518:00001313
#0851b:23230000
#08512:00002323
#08618:00130000
#08615:0013
#08612:00000013
#0861b:23
#08818:000000000000000000000013
#08812:0024
#0811a:0014
#08118:140000340034000034340000
#08110:41
#08718:00000000000000130000000000000000
#08715:23000000000000130000000000000000
#0691f:000000000011000000000000
#06916:00380000000000000000000000000000
#06915:00390000
#0341b:23230000
#03412:00002323
#05118:26
#05112:00260000
#09312:000000000026000000000000
#09518:000000000026000000000000
#10015:0023
#10115:0023
#10118:23
#00315:00230000
#00318:0023
#0031b:00000023
#00312:23
#02912:23
#02915:00230000
#02918:0023
#0291b:00000023
#04212:23230000
#0421b:00002323
#04210:41
#06615:00230000
#0841b:23230000
#08412:00002323
#08018:00260000
#0801f:21
#06718:246464646464640000000000
#06714:000000000000246464646464
#05912:24
#05916:003400000000
#06819:0000000000350000
#06818:0000000000000000000000000000000000000000000000000000003600000000
#06810:41
#06814:64
#1081a:00000000000000000000005400000000
#10818:00000054
#10816:00000000000000000000000000540000
#01155:000000000063000000000000
#01658:000000000000000000000063
#03252:000000000000000000000053
#03255:0053
#05158:16
#05152:00160000
#09652:64
#09656:0054
#00455:000000000000000000000053
#00452:0053
#00952:53
#00955:000000000013000000000000
#0125b:0063
#01258:000000000000000000000063
#01455:000000000053000000000000
#01452:000000000000000000000053
#00658:000000000053000000000000
#0075b:13
#0185b:000000000053000000000000
#01852:000000000063000000000000
#03352:0013
#03355:000000000023000000000000000000000000000000000000
#03758:00530000
#0375b:0023
#03755:00630000
#03752:0023
#04852:00000054
#09352:000000000016000000000000
#07455:53
#07258:63
#07552:23
#0735b:23
#09558:000000000016000000000000
#09756:0064
#0975a:54
#09958:000063
#0995b:00630000
#10252:66
#10258:66
#10452:13
#1045b:13
#10652:14
#1065a:14
#0205a:4444
#02052:00340000
#02252:3434
#0225a:00440000
#0245a:4444
#02452:00340000
#02655:000000000013000000000000
#02652:63
#0275b:53
#02758:000000000013000000000000
#02852:63
#02855:000000000013000000000000
#0285b:53
#02858:000000000013000000000000
#03057:0054
#03055:54
#03052:00140000
#0305a:00000014
#03158:00530000
#0315b:000053
#0405b:000000000000000000000063
#04058:0063
#04555:00630000
#04552:0023
#04558:00530000
#0455b:0023
#03855:0064
#03857:64
#0385a:00140000
#03852:00000014
#04158:000000000023000000000000000000000000000000000000
#0415b:0013
#03955:00630000
#03952:000063
#05956:000000000014000000000000
#0605a:64000064
#06057:000000000064000000000000
#06157:001400000000
#06252:54000054
#06255:000000000054000000000000
#06355:001400000000
#07655:13
#07754:13
#0905a:00000064
#0815a:0024
#08158:64
#08058:00160000
#08758:00000000000000530000000000000000
#08755:00000000000000630000000000000000
#0885b:13
#08852:13
#01955:13
#01958:13
#09856:0014
#09852:54
#0003b0:130000000000000000000000000000000000000000000000000000000000000000000000000000000000000000000000000000000000000000000000000000000000000000000000000000000000000000000000000000000000000000000000000000000000000000000000000000000000000000000000000000000000000000000000000000000000000000000000000000000000000000000000000000000000000000000000000000000000000000000000000000000000000000000000000000000000000000000000000000000000000000000000000000000000000000000000000000000000000000000000000000000000000000000000000000000000000000000000000000000000000000000000000000000000000000000000000000000000000000000000000000000000000000000000000000000000005300000000000000000000000000000000000000000000000000000000000000000000000000000000000000000000000000000000000000000000000000000000000000000000000000000000000000000000000000000000000000000000000000000000000000000000000000000000000000000000000000000000000000000000000000000000000000000000000000000000000000000000000000000000000000000000000000000000000000000000000000000000000000000000000000000000000000000000000000000000000000000000000000000000000000000000000000000000000000000000000000000000000000000000000000000000000000000000000000000000000000000000000000000000000000000000000000000000000000000000000000000000000000000000000000000000000000000000000000000000000000000000000000000000000000000000000000000000000000000000000000000000000000000000000000000000000000000000000000000000000000000000000000000000000000000000000000000000000000000000000000000000000000000000000000000000000000000000000000000000000000000000000000000000000000000000000000000000000000000000000000000000000000000000000000000000000000000000000000000000000000000000000000000000000000000000000000000000000000000000000000000000000000000000000000000000000000000000000000000000000000000000000000000000000000000000000000000000000000000000000000000000000000000000000000000000000000000000000000000000000000000000000000000000000000000000000000000000000000000000000000000000000000000000000000000000000000000000000000000000000000000000000000000000000000000000000000000000000000000000000000000000000000000000000000000000000000000000000000000000000000000000000000000000000000000000000000000000000000000000000000000000000000000000000000000000000000000000000000000000000000000000000000000000000000000000000000000000000000000000000000000000000000000000000000000000000000000000000000000000000000000000000000000000000000000000000000000000000000000000000000000000000000000000000000000000000000000000000000000000000000000000000000000000000000000000000000000000000000000000000000000000000000000000000000000000000000000000000000000000000000000000000000000000000000000000000000000000000000000000000000000000000000000000000000000000000000000000000000000000000000000000000000000000000000000000000000000000000000000000000000000000000000000000000000000000000000000000000000000000000000000000000000000000000000000000000000000000000000000000000000000000000000000000000000000000000000000000000000000000000000000000000000000000000000000000000000000000000000000000000000000000000000000000000000000000000000000000000000000000000000000000000000000000000000000000000000000000000000000000000000000000000000000000000000000000000000000000000000000000000000000000000000000000000000000000000000000000000000000000000000000000000000000000000000000000000000000000000000000000000000000000000000000000000000000000000000000000000000000000000000000000000000000000000000000000000000000000000000000000000000000000000000000000000000000000000000000000000000000000000033000000000000000000000000000000000000000000000000000000000000000000000000000000000000000000000000000000000000000000000000000000000000000000000000000000000000000000000000000000000000000000000000000000000000000000000000000000000000000000000000000000000000000000000000000000000000000000000000000000000000000000000000000000
#0003a0:000000000000000000000000000000000000000000000000000000000000000000000000000000000000000000000000000000000000000000000000000000000000000000000000000000000000000000000000000000000000000000000000000000000000000000000000000000000000000000000000000000000000000000000000000000000000000000000000000000000000000000000000000000000000000000000000000000000000000000000000000000000000000000000000000000000000000000000000000000000000000000000000000000000000000000000000000000000000000000000000000000000000000000000000000000000000000000000000000000000000000000000000000000000000000000000000000000000000000000000000000000000000000000000000000000000000000034000000000000000000000000000000000000000000000000000000000000000000000000000000000000000000000000000000000000000000000000000000000000000000000000000000000000000000000000000000000000000000000000000000000000000000000000000000000000000000000000000000000000000000000000000000000000000000000000000000000000000000000000000054000000000000000000000000000000000000000000000000000000000000000000000000000000000000000000000000000000000000000000000000000000000000000000000000000000000000000000000000000000000000000000000000000000000000000000000000000000000000000000000000000000000000000000000000000000000000000000000000000000000000000000000000000000000000000000000000000000000000000000000000000000000000000000000000000000000000000000000000000000000000000000000000000000000000000000000000000000000000000000000000000000000000000000000000000000000000000000000000000000000000000000000000000000000000000000000000000000000000000000000000000000000000000000000000000000000000000000000000000000000000000000000000000000000000000000000000000000000000000000000000000000000000000000000000000000000000000000000000000000000000000000000000000000000000000000000000000000000000000000000000000000000000000000000000000000000000000000000000000000000000000000000000000000000000000000000000000000000000000000000000000000000000000000000000000000000000000000000000000000000000000000000000000000000000000000000000000000000000000000000000000000000000000000000000000000000000000000000000000000000000000000000000000000000000000000000000000000000000000000000000000000000000000000000000000000000000000000000000000000000000000000000000000000000000000000000000000000000000000000000000000000000000000000000000000000000000000000000000000000000000000000000000000000000000000000000000000000000000000000000000000000000000000000000000000000000000000000000000000000000000000000000000000000000000000000000000000000000000000000000000000000000000000000000000000000000000000000000000000000000000000000000000000000000000000000000000000000000000000000000000000000000000000000000000000000000000000000000000000000000000000000000000000000000000000000000000000000000000000000000000000000000000000000000000000000000000000000000000000000000000000000000000000000000000000000000000000000000000000000000000340000000000000000000000000000000000000000000000000000000000000000000000000000000000000000000000000000000000000000000000000000000000000000000000000000000000000000000000000000000000000000000000000000000000000000000000000000000000000000000000000000000000000000000000000000000000000000000000000000000000000000000000000000000000000000000000000000000000000000000000000000000000000000000000000000000000000000000000000000000000000000000000000000000000000000000000000000000000000000000000000000000000000000000000000000000000000000000000000000000000000000000000000000000000000000000000000000000000000000000000000000000000000000000000000000000000005400000000000000000000000000000000000000000000000000000000000000000000000000000000000000000000000000000000000000000000000000000000000000000000000000000000000000000000000000000000000000000000000000000000000000000000000000000000000000000000000000000000000000000000000000000000000000000000000000000000000000000000000000000000
#000390:000000000000000000000000000000000000000000000000000000000000000000000000000000000000000000000000000000000000000000000000000000000000000000000000000000000000000000000000000000000000000000000000000000000000000000000000000000000000000000000000000000000000000000000000000000000000000000000000000000000000000000000000000000000000000000000000000000000000000000000000000000000000000000000000000000000000000000000000000000000000000000000000000000000000000000000000000000000000000000000000000000000000000000000000000000000000000000000000000000000000000000000000000000000000000000000000000000000000000000000000000000000000000000000000000000000000000000000000000000000000000000000000000000000000000000000000000000000000000000000000000000000000000000000000000000000000000000000000000000000000000000000000000000000000000000000000000000000000000000000000000000000000000000000000000000000000000000000000000000000000000000000000000000000000000000000000000000000000000000000000350000000000000000000000000000000000000000000000000000000000000000000000000000000000000000000000000000000000000000000000000000000000000000000000000000000000000000000000000000000000000000000000000000000000000000000000000000000000000000000000000000000000000000000000000000000000000000000000000000000000000000000000000000000000000000000000000000000000000000000000000000000000000000000000000000000000000000000000000000000000000000000000000000000000000000000000000000000000000000000000000000000000000000000000000000000000000000000000000000000000000000000000000000000000000000000000000000000000000000000000000000000000000000000000000000000000000000000000000000000000000000000000000000000000000000000000000000000000000000000055000000000000000000000000000000000000000000000000000000000000000000000000000000000000000000000000000000000000000000000000000000000000000000000000000000000000000000000000000000000000000000000000000000000000000000000000000000000000000000000000000000000000000000000000000000000000000000000000000000000000000000000000000000000000000000000000000000000000000000000000000000000000000000000000000000000000000000000000000000000000000000000000000000000000000000000000000000000000000000000000000000000000000000000000000000000000000000000000000000000000000000000000000000000000000000000000000000000000000000000000000000000000000000000000000000000000000000000000000000000000000000000000000000000000000000000000000000000000000000000000000000000000000000000000000000000000000000000000000000000000000000000000000000000000000000000000000000000000000000000000000000000000000000000000000000000000000035000000000000000000000000000000000000000000000000000000000000000000000000000000000000000000000000000000000000000000000000000000000000000000000000000000000000000000000000000000000000000000000000000000000000000000000000000000000000000000000000000000000000000000000000000000000000000000000000000000000000000000000000000055000000000000000000000000000000000000000000000000000000000000000000000000000000000000000000000000000000000000000000000000000000000000000000000000000000000000000000000000000000000000000000000000000000000000000000000000000000000000000000000000000000000000000000000000000000000000000000000000000000000000000000000000000000000000000000000000000000000000000000000000000000000000000000000000000000000000000000000000000000000000000000000000000000000000000000000000000000000000000000000000000000000000000000000000000000000000000000000000000000000000000000000000000000000000000000000000000000000000000000000000000000000000000000000000000000000000000000000000000000000000000000000000000000000000000000000000000000000000000000000000000000000000000000000000000000000000000000000000000000000000000000000000000000000000000000000000000000000000000000000000000000000000000000000000000000000000000000000000000000000000000000000000000000000000000000000000000000000000000000000000
#000380:000000000000000000000000000000000000000000000000000000000000000000000000000000000000000000000000000000000000000000000000000000000000000000000000000000000000000000000000000000000000000000000000000000000000000000000000000000000000000000000000000000000000000000000000000000000000000000000000000000000000000000000000000000000000000000000000000000000000000000000000000000000000000000000000000000000000000000000000000000000000000000000000000000000000000000000000000000000000000000000000000000000000000000000000000000000000000000000000000000000000000000000000000000000000000000000000000000000000000000000000000000000000000000000000000000000000000000000000000000000000000000000000000000000000000000000000000000000000000000000000000000000000000000000000000000000000000000000000000000000000000000000000000000000000000000000000000000000000000000000000000000000000000000000000000000000000000000000000000000000000000000000000000000000000000000000000000000000000000000000000000000000000000000000000000000000000000000000000000000000000000000000000000000000000000000000000000000000000000000000000000000000000000000000000000000000000000000000000000000000000000000000000000000000000000000000000000000000000000000000000000000000000000000000000000000000000000000000000000000000000000000000000000000000000000000000000000000000000000000000000000000000000000000000000000000000000000000000000000000000000000000000000000000000000000000000000000000000000000000000000000000000000000000000000000000000000000000000000000000000000000000000000000000000000000000000000000000000000000000000000000000000000000000000000000000000000000000000000000000000000000000000000000000000000000000000000000000000000000000000000360000000000000000000000000000000000000000000000000000000000000000000000000000000000000000000000000000000000000000000000000000000000000000000000000000000000000000000000000000000000000000000000000000000000000000000000000000000000000000000000000000000000000000000000000000000000000000000000000000000000000000000000000000000000000000000000000000000000000000000000000000000000000000000000000000000000000000000000000000000000000000000000000000000000000000000000000000000000000000000000000000000000000000000000000000000000000000000000000000000000000000000000000000000000000000000000000000000000000000000000000000000000000000000000000000000000000000000000000000000000000000000000000000000000000000000000000000000000000000000000000000000000000000000000000000000000000000000000000000000000000000000000000000000000000000000000000000000000000000000000000000000000000000000000000000000000005600000000000000000000000000000000000000000000000000000000000000000000000000000000000000000000000000000000000000000000000000000000000000000000000000000000000000000000000000000000000000000000000000000000000000000000000000000000000000000000000000000000000000000000000000000000000000000000000000000000000000000000000000000000000000000000000000000000000000000000000000000000000000000000000000000000000000000000000000000000000000000000000000000000000000000000000000000000000000000000000000000000000000000000000000000000000000000000000000000000000000000000000000000000000000000000000000000000000000000000000000000000000000000000000000000000000000000000000000000000000000000000000000000000000000000000000000000000000000000000000000000000000000000000000000000000000000000000000000000000000000000000000000000000000000000000000000000000000000000000000000000000000000000000000000000000000000000000000000000000000000000000000000000000000000000000000000000000000000000000000000000000000000000000000000000000000000000000000000000000000000000000000000000000000000000000000000000000000000000000000000000000000000000000000000000000000000000000000000000000000000000000000000000000000000000000000000000000000000000000000000000000000000000000000000000000000000000000000000000000000000000000000000000000
#0013b0:23
#001321:130000000000000000000000000000000000000000000000000000000000000000000000000000000000000000000000000000000000000000000000000000000000000000000000000000000000000000000000000000000000000000000000000000000000000000000000000000000000000000000000000000000000000000000000000000000000000000000000000000000000000000000000000000000000000000000000000000000000000000000000000000000000000000000000000000000000000000000000000000000000000000000000000000000000000000000000000000000000000000000000000000000000000000000000000000000000000000000000000000000000000000000000000000000000000000000000000000000000000000000000000000000000000000000000000000000000005334000000000000000000000000000000000000000000000000000000000000000000000000000000000000000000000000000000000000000000000000000000000000000000000000000000000000000000000000000000000000000000000000000000000000000000000000000000000000000000000000000000000000000000000000000000000000000000000000000000000000000000000000000054350000000000000000000000000000000000000000000000000000000000000000000000000000000000000000000000000000000000000000000000000000000000000000000000000000000000000000000000000000000000000000000000000000000000000000000000000000000000000000000000000000000000000000000000000000000000000000000000000000000000000000000000000000000000000000000000000000000000000000000000000000000000000000000000000000000000000000000000000000000000000000000000000000000000000000000000000000000000000000000000000000000000000000000000000000000000000000000000000000000000000000000000000000000000000000000000000000000000000000000000000000000000000000000000000000000000000000000000000000000000000000000000000000000000000000000000000000000000000000000055360000000000000000000000000000000000000000000000000000000000000000000000000000000000000000000000000000000000000000000000000000000000000000000000000000000000000000000000000000000000000000000000000000000000000000000000000000000000000000000000000000000000000000000000000000000000000000000000000000000000000000000000000000000000000000000000000000000000000000000000000000000000000000000000000000000000000000000000000000000000000000000000000000000000000000000000000000000000000000000000000000000000000000000000000000000000000000000000000000000000000000000000000000000000000000000000000000000000000000000000000000000000000000000000000000000000000000000000000000000000000000000000000000000000000000000000000000000000000000000000000000000000000000000000000000000000000000000000000000000000000000000000000000000000000000000000000000000000000000000000000000000000000000000000000000000000005635000000000000000000000000000000000000000000000000000000000000000000000000000000000000000000000000000000000000000000000000000000000000000000000000000000000000000000000000000000000000000000000000000000000000000000000000000000000000000000000000000000000000000000000000000000000000000000000000000000000000000000000000000055340000000000000000000000000000000000000000000000000000000000000000000000000000000000000000000000000000000000000000000000000000000000000000000000000000000000000000000000000000000000000000000000000000000000000000000000000000000000000000000000000000000000000000000000000000000000000000000000000000000000000000000000000000000000000000000000000000000000000000000000000000000000000000000000000000000000000000000000000000000000000000000000000000000000000000000000000000000000000000000000000000000000000000000000000000000000000000000000000000000000000000000000000000000000000000000000000000000000000000000000000000000000000000000000000000000000005433000000000000000000000000000000000000000000000000000000000000000000000000000000000000000000000000000000000000000000000000000000000000000000000000000000000000000000000000000000000000000000000000000000000000000000000000000000000000000000000000000000000000000000000000000000000000000000000000000000000000000000000000000000
#002321:23
#0023a0:140000000000000000000000000000000000000000000000000000000000000000000000000000000000000000000000000000000000000000000000000000000000000000000000000000000000000000000000000000000000000000000000000000000000000000000000000000000000000000000000000000000000000000000000000000000000000000000000000000000000000000000000000000000000000000000000000000000000000000000000000000000000000000000000000000000000000000000000000000000000000000000000000000000000000000000000000000000000000000000000000000000000000000000000000000000000000000000000000000000000000000000000000000000000000000000000000000000000000000000000000000000000000000000000000000000000000000000000000000000000000000000000000000000000000000000000000000000000000000000000000000000000000000000000000000000000000000000000000000000000000000000000000000000000000000000000000000000000000000000000000000000000000000000000000000000000000000000000000000000000000000000000000000000000000000000000000000000000000000000054000000000000000000000000000000000000000000000000000000000000000000000000000000000000000000000000000000000000000000000000000000000000000000000000000000000000000000000000000000000000000000000000000000000000000000000000000000000000000000000000000000000000000000000000000000000000000000000000000000000000000000000000000000000000000000000000000000000000000000000000000000000000000000000000000000000000000000000000000000000000000000000000000000000000000000000000000000000000000000000000000000000000000000000000000000000000000000000000000000000000000000000000000000000000000000000000000000000000000000000000000000000000000000000000000000000000000000000000000000000000000000000000000000000000000000000000000000000000000000000000000000000000000000000000000000000000000000000000000000000000000000000000000000000000000000000000000000000000000000000000000000000000000000000000000000000000000000000000000000000000000000000000000000000000000000000000000000000000000000000000000000000000000000000000000000000000000000000000000000000000000000000000000000000000000000000000000000000000000000000000000000000000000000000000000000000000000000000000000000000000000000000000000000000000000000000000000000000000000000000000000000000000000000000000000000000000000000000000000000000000000000000000000000000000000000000000000000000000000000000000000000000000000000000000000000000000000000000000000000000000000000000000000000000000000000000000000000000000000000000000000000000000000000000000000000000000000000000000000000000000000000000000000000000000000000000000000000000000000000000000000000000000000000000000000000000000000000000000000000000000000000000000000000000000000000000000000000000000000000000000000000000000000000000000000000000000000000000000000000000000000000000000000000000000000000000000000000000000000000000000000000000000000000000000000000000000000000000000000000000000000000000000000000000000000000000000000000000000000000000000340000000000000000000000000000000000000000000000000000000000000000000000000000000000000000000000000000000000000000000000000000000000000000000000000000000000000000000000000000000000000000000000000000000000000000000000000000000000000000000000000000000000000000000000000000000000000000000000000000000000000000000000000000000000000000000000000000000000000000000000000000000000000000000000000000000000000000000000000000000000000000000000000000000000000000000000000000000000000000000000000000000000000000000000000000000000000000000000000000000000000000000000000000000000000000000000000000000000000000000000000000000000000000000000000000000000005400000000000000000000000000000000000000000000000000000000000000000000000000000000000000000000000000000000000000000000000000000000000000000000000000000000000000000000000000000000000000000000000000000000000000000000000000000000000000000000000000000000000000000000000000000000000000000000000000000000000000000000000000000000
#002390:000000000000000000000000000000000000000000000000000000000000000000000000000000000000000000000000000000000000000000000000000000000000000000000000000000000000000000000000000000000000000000000000000000000000000000000000000000000000000000000000000000000000000000000000000000000000000000000000000000000000000000000000000000000000000000000000000000000000000000000000000000000000000000000000000000000000000000000000000000000000000000000000000000000000000000000000000000000000000000000000000000000000000000000000000000000000000000000000000000000000000000000000000000000000000000000000000000000000000000000000000000000000000000000000000000000000000000000000000000000000000000000000000000000000000000000000000000000000000000000000000000000000000000000000000000000000000000000000000000000000000000000000000000000000000000000000000000000000000000000000000000000000000000000000000000000000000000000000000000000000000000000000000000000000000000000000000000000000000000000000350000000000000000000000000000000000000000000000000000000000000000000000000000000000000000000000000000000000000000000000000000000000000000000000000000000000000000000000000000000000000000000000000000000000000000000000000000000000000000000000000000000000000000000000000000000000000000000000000000000000000000000000000000000000000000000000000000000000000000000000000000000000000000000000000000000000000000000000000000000000000000000000000000000000000000000000000000000000000000000000000000000000000000000000000000000000000000000000000000000000000000000000000000000000000000000000000000000000000000000000000000000000000000000000000000000000000000000000000000000000000000000000000000000000000000000000000000000000000000000000000000000000000000000000000000000000000000000000000000000000000000000000000000000000000000000000000000000000000000000000000000000000000000000000000000000000000000000000000000000000000000000000000000000000000000000000000000000000000000000055000000000000000000000000000000000000000000000000000000000000000000000000000000000000000000000000000000000000000000000000000000000000000000000000000000000000000000000000000000000000000000000000000000000000000000000000000000000000000000000000000000000000000000000000000000000000000000000000000000000000000000000000000000000000000000000000000000000000000000000000000000000000000000000000000000000000000000000000000000000000000000000000000000000000000000000000000000000000000000000000000000000000000000000000000000000000000000000000000000000000000000000000000000000000000000000000000000000000000000000000000000000000000000000000000000000000000035000000000000000000000000000000000000000000000000000000000000000000000000000000000000000000000000000000000000000000000000000000000000000000000000000000000000000000000000000000000000000000000000000000000000000000000000000000000000000000000000000000000000000000000000000000000000000000000000000000000000000000000000000055000000000000000000000000000000000000000000000000000000000000000000000000000000000000000000000000000000000000000000000000000000000000000000000000000000000000000000000000000000000000000000000000000000000000000000000000000000000000000000000000000000000000000000000000000000000000000000000000000000000000000000000000000000000000000000000000000000000000000000000000000000000000000000000000000000000000000000000000000000000000000000000000000000000000000000000000000000000000000000000000000000000000000000000000000000000000000000000000000000000000000000000000000000000000000000000000000000000000000000000000000000000000000000000000000000000000000000000000000000000000000000000000000000000000000000000000000000000000000000000000000000000000000000000000000000000000000000000000000000000000000000000000000000000000000000000000000000000000000000000000000000000000000000000000000000000000000000000000000000000000000000000000000000000000000000000000000000000000000000000000
#002380:000000000000000000000000000000000000000000000000000000000000000000000000000000000000000000000000000000000000000000000000000000000000000000000000000000000000000000000000000000000000000000000000000000000000000000000000000000000000000000000000000000000000000000000000000000000000000000000000000000000000000000000000000000000000000000000000000000000000000000000000000000000000000000000000000000000000000000000000000000000000000000000000000000000000000000000000000000000000000000000000000000000000000000000000000000000000000000000000000000000000000000000000000000000000000000000000000000000000000000000000000000000000000000000000000000000000000000000000000000000000000000000000000000000000000000000000000000000000000000000000000000000000000000000000000000000000000000000000000000000000000000000000000000000000000000000000000000000000000000000000000000000000000000000000000000000000000000000000000000000000000000000000000000000000000000000000000000000000000000000000000000000000000000000000000000000000000000000000000000000000000000000000000000000000000000000000000000000000000000000000000000000000000000000000000000000000000000000000000000000000000000000000000000000000000000000000000000000000000000000000000000000000000000000000000000000000000000000000000000000000000000000000000000000000000000000000000000000000000000000000000000000000000000000000000000000000000000000000000000000000000000000000000000000000000000000000000000000000000000000000000000000000000000000000000000000000000000000000000000000000000000000000000000000000000000000000000000000000000000000000000000000000000000000000000000000000000000000000000000000000000000000000000000000000000000000000000000000000000000000000000000000000000000000000000000000000000000000000000000000000000000000000000000000000000000000000000000000000000000000000000000000000000000000000000000000000000000000000000000000000000000000000000000000000000000000000000000000000000000000000360000000000000000000000000000000000000000000000000000000000000000000000000000000000000000000000000000000000000000000000000000000000000000000000000000000000000000000000000000000000000000000000000000000000000000000000000000000000000000000000000000000000000000000000000000000000000000000000000000000000000000000000000000000000000000000000000000000000000000000000000000000000000000000000000000000000000000000000000000000000000000000000000000000000000000000000000000000000000000000000000000000000000000000000000000000000000000000000000000000000000000000000000000000000000000000000000000000000000000000000000000000000000000000000000000000000005600000000000000000000000000000000000000000000000000000000000000000000000000000000000000000000000000000000000000000000000000000000000000000000000000000000000000000000000000000000000000000000000000000000000000000000000000000000000000000000000000000000000000000000000000000000000000000000000000000000000000000000000000000000000000000000000000000000000000000000000000000000000000000000000000000000000000000000000000000000000000000000000000000000000000000000000000000000000000000000000000000000000000000000000000000000000000000000000000000000000000000000000000000000000000000000000000000000000000000000000000000000000000000000000000000000000000000000000000000000000000000000000000000000000000000000000000000000000000000000000000000000000000000000000000000000000000000000000000000000000000000000000000000000000000000000000000000000000000000000000000000000000000000000000000000000000000000000000000000000000000000000000000000000000000000000000000000000000000000000000000000000000000000000000000000000000000000000000000000000000000000000000000000000000000000000000000000000000000000000000000000000000000000000000000000000000000000000000000000000000000000000000000000000000000000000000000000000000000000000000000000000000000000000000000000000000000000000000000000000000000000000000000000000
#0023b0:000000000000000000000033
#0033b0:23
#004320:0013
#004350:000000000000000033000033
#005320:00230000
#006380:000000130033000000000000
#0073b0:23
#009320:13
#009350:000000330023000000000000
#011350:130033330033000000000000
#011320:00000023
#0123b0:0013
#012380:000000000000000033000033
#0133b0:00230000
#014350:000000130033000000000000
#014320:000000000000000000330033
#015350:0023
#016380:000000000000000000130033
#0173b0:00230000
#018320:130000330033000000000000
#019350:23
#0183b1:130000330033000000000000
#019381:23
#026321:13
#026351:000000000023000000000000
#0273b1:13
#027381:000000000023000000000000
#028321:13
#028351:000000000023000000000000
#0283b0:13
#028380:000000000023000000000000
#030350:14
#030320:00240000
#030370:0014
#0303a0:00000024
#031380:00130000
#0313b0:000000000033000033330000
#032380:23
#032350:000000133300
#032320:000000000000000000000033
#033350:000000000053000000000000000000000000000000000000
#033320:0023
#037380:13330023
#0373b0:000000000033530000000000
#037351:00130023
#037321:000000000033530000000000
#038371:14
#0383a1:00240000
#038351:0014
#038321:00000024
#039351:00130000
#039321:000000000033000033330000
#040351:23
#040381:000000133300
#0403b1:000000000000000000000033
#041381:000000000053000000000000000000000000000000000000
#0413b1:0023
#045351:13330023
#045321:000000000033530000000000
#045380:00130023
#0453b0:000000000033530000000000
#048320:00000014
#049360:00240000
#059320:14
#059360:000034000024000000000000
#0603a0:14000034
#060370:000000000034000000000000
#061370:002400000000
#062320:14000034
#062350:000000000034000000000000
#063350:002400000000
#066350:00000000130000000000003300000000
#067340:24
#0683a0:1434003400000000
#068390:0000000000350000
#068380:0000000000000000000000000000000000000000000000000000003600000000
#069360:00380000000000000000000000000000
#069350:00390000
#069320:00000000003c000000000000
#071320:2c
#072380:13
#0733b0:53
#074380:23
#074351:13
#075321:33
#075341:0033
#076351:23
#080381:16260000
#080341:0014
#081341:24
#081380:140000340034000034340000
#0813a0:0054
#082380:24
#082321:14000000340000000000000000000034
#082331:00000000003400000000000000003400
#082341:00000000000034000000000000340000
#082351:00000000000000340000000034000000
#083321:00340000
#083331:00000000003400000000000000000000
#083341:0000003400000000
#083351:00000000000000340000000024000000
#087381:13000000000000330000000000000000
#0883b1:23
#087350:13000000000000330000000000000000
#088320:23
#0903a0:00000014
#091360:00240000
#093320:160000000026000000000000
#095380:160000000026000000000000
#096320:14
#096360:0034
#097320:24
#0973a1:14
#097361:0034
#0983a1:24
#098320:14
#098360:0024
#0993b0:00130000
#099380:000000000033000033000000
#1003b0:23
#100350:0013
#101320:26
#101381:1326
#101350:0013
#102320:36
#103350:0033
#103320:000000000000000000000000000053555355535553555355
#104320:23
#102381:16
#103381:0033
#1033b1:000000000000005353535353
#103391:000000000000000000000000000000550055005500550055
#1043b1:23
#1073a1:00000014
#1083a1:00000000000000000000002400000000
#055980:000000000000140000000024
#067980:1424
#067941:0014
#068941:24
#1089a1:00000000000000000000001400000000
#108961:00000000000000000000000000240000
