This file was generated by Ched 2.7.0.0.
#TITLE ""
#ARTIST ""
#DESIGNER ""
#DIFFICULTY 0
#PLAYLEVEL
#SONGID ""
#WAVE ""
#WAVEOFFSET 0
#JACKET ""
#REQUEST "ticks_per_beat 480"
#00002: 4
#BPM01: 220
#00008: 01
#TIL00: ""
#VOLUME: ""
#HISPEED 00
#MEASUREHS 00
#02918:14
#02914:00140000
#0291a:0014
#02912:00000014
#09912:0014
#0991a:14
#10414:0014
#10518:14
#10514:0014
#09612:14
#09812:14
#10612:14
#1061a:14
#04719:14
#04713:0014
#04818:14000024
#04812:0014
#04614:0014
#0461a:14
#06012:14
#06014:00000014
#07212:14
#09418:1415
#09414:00140000
#09413:00000015
#0971a:14
#0041a:1414
#00414:00140000
#00512:1414
#00518:00140000
#00812:1414
#00818:00140000
#0091a:1414
#00914:00140000
#01218:14
#01214:00140000
#0121a:0014
#01210:41
#01314:14
#01318:00140000
#01312:0014
#01712:14
#01718:00140000
#01714:0014
#0171a:00000014
#01812:14
#01814:0014
#0201a:2414
#02012:00240000
#02114:1414
#02118:00140014
#02212:2414
#0221a:00240000
#02318:1414
#02314:00140014
#0241a:2414
#02412:00240000
#02514:1414
#02518:00140014
#02612:140000000034000000000000
#0271a:140000000034000000000000
#02812:140000000034000000000000
#05014:14
#05018:00140015
#05013:0015
#05212:14
#05214:0014
#05614:14
#05612:0014
#05610:41
#06219:15
#06216:00000015
#06515:16
#06712:0014
#0671a:14
#0741a:14
#07612:14
#09214:14
#09218:00140015
#09213:0015
#1021a:14
#10217:00000014
#1031a:0014
#00618:0014
#0061a:14
#01014:0014
#01012:14
#01112:14
#01512:14
#0141a:14
#0161a:14
#01614:00140000
#01618:0014
#03112:14
#03113:0014
#03119:00000014
#0311a:00140000
#03312:14
#03214:14
#03218:00140000
#03213:0014
#03219:00000014
#03414:00140014
#0341a:2424
#03512:00140014
#03518:2424
#0391a:14
#03919:0014
#03913:00000014
#03912:00140000
#0411a:14
#04018:14
#04014:00140000
#04019:0014
#04013:00000014
#04412:14
#04413:00340000
#04414:0034
#04415:00000034
#04218:00140014
#04212:2424
#04210:41
#0431a:00140014
#04314:2424
#0361a:14
#03619:00340000
#03618:0034
#03617:00000034
#03712:0014
#0371a:0014
#05312:14
#05714:14
#0541a:14
#05418:0014
#0551a:14
#05818:14
#0581a:0014
#05918:14
#0811a:14
#08110:41
#08212:14
#08214:0014
#08312:14
#08913:14
#08919:0014
#09014:14000024
#0901a:0014
#08818:0014
#08812:14
#0861a:14
#08619:00340000
#08618:0034
#08617:00000034
#08414:00140014
#0841a:2424
#08512:00140014
#08518:2424
#0691f:000000000011000000000000
#06918:00360000
#06919:00350000000000000000000000000000
#03018:26
#03010:41
#07818:2425
#07814:00240000
#07813:00000025
#07918:26
#10018:0024
#05112:26
#05118:00260000
#06412:26
#08012:24
#0801f:21
#09312:26
#09518:26
#03812:26
#06810:41
#09652:64
#09854:0014
#09852:64
#04858:00000054
#06052:54
#06054:00000024
#07252:64
#0975a:54
#01852:54
#01854:0024
#0205a:0014
#02252:0014
#0245a:0014
#02652:64
#0275a:54
#02852:64
#05254:0024
#05252:54
#05654:64
#05652:0054
#06259:65
#06256:00000025
#06555:26
#0745a:54
#07652:64
#07958:16
#1025a:54
#10257:00000024
#10458:14
#1035a:0054
#0065a:54
#00658:0024
#01054:0024
#01052:64
#01152:64
#01552:64
#0145a:54
#03352:64
#03354:0014
#0415a:54
#04158:0014
#04556:000000000014000000000000
#04452:54
#0365a:64
#05352:54
#05754:54
#0545a:64
#05458:0024
#0555a:64
#05858:54
#0585a:0064
#05958:64
#06452:56
#08054:0014
#08052:64
#08158:0014
#0815a:54
#08354:0014
#08352:64
#08252:64
#08254:0064
#0865a:64
#09054:00000064
#08756:000000000014000000000000
#09352:16
#09558:16
#000380:1424
#001340:1424
#0023a0:1424
#003320:1424
#0063a0:14
#006380:0034
#0073a0:24
#010320:14
#010340:0034
#011320:34
#011340:0024
#0143a0:14
#014380:0024
#015320:14
#015340:0024
#018320:14
#018340:0054
#019320:24
#026320:140000000034000000000000
#026340:00000024
#0273a0:140000000034000000000000
#027380:00000024
#028320:140000000034000000000000
#028340:00000024
#030380:1626
#033320:14
#033340:0024
#0363a0:14
#036390:00340000
#036380:0034
#036370:00000034
#037360:24
#038320:1626
#0413a0:14
#041380:0024
#044320:14
#044330:00340000
#044340:0034
#044350:00000034
#045360:340000000024000000000000
#048380:00000014
#0493a0:0024
#052320:14
#052340:0034
#053320:34
#053340:0024
#0543a0:14
#054380:0034
#0553a0:34
#055380:0024
#056340:14
#056320:0034
#057340:34
#057320:0024
#058380:14
#0583a0:0034
#059380:34
#0593a0:0024
#060320:14
#060340:00000054
#061320:0024
#062390:15
#062360:00000055
#063390:0025
#064320:16
#065350:56
#066320:26
#0683a0:1400000000000000000000003400000000000000000000000000003400000000
#069390:00350000000000000000000000000000
#069380:00360000
#069370:000000000037000000000000
#071370:27
#072320:14
#073340:24
#0743a0:14
#075380:24
#076320:14
#077340:24
#080320:14
#080340:0024
#0813a0:14
#081380:0024
#082320:14
#082340:0034
#083320:34
#083340:0024
#0863a0:14
#086390:00340000
#086380:0034
#086370:00000034
#087360:340000000024000000000000
#090340:00000014
#091320:0024
#096320:14
#096340:0024
#0973a0:14
#097380:0024
#098320:14
#098340:0024
#100380:0014
#1013a0:34
#101380:0034
#1023a0:34
#102370:00000054
#1033a0:0034
#104380:24
#1073a0:00000014
#1083a0:00000024
