This file was generated by Ched 2.7.0.0.
#TITLE ""
#ARTIST ""
#DESIGNER ""
#DIFFICULTY 0
#PLAYLEVEL
#SONGID ""
#WAVE ""
#WAVEOFFSET 0
#JACKET ""
#REQUEST "ticks_per_beat 480"
#00002: 4
#BPM01: 115
#00008: 01
#TIL00: ""
#VOLUME: ""
#HISPEED 00
#MEASUREHS 00
#00019:14
#00113:14
#00514:14
#0061a:14
#00714:14
#00818:14
#00912:14
#01018:14
#01112:14
#02012:0016
#02018:26
#02010:41
#02118:16
#02112:0016
#02218:16
#02212:0016
#03012:14
#03214:14
#05718:0014
#0591a:0014
#06118:0014
#0631a:0014
#03414:0014
#0351a:0014
#03612:0014
#03712:0014
#0381a:0014
#03810:41
#0391a:0014
#06214:0014
#00219:14
#00313:14
#0041a:14
#00410:41
#02418:0016
#02412:26
#02512:16
#02518:0016
#02612:16
#02618:0016
#02818:14
#03118:14
#04918:16
#04912:0016
#04910:0041
#05018:16
#05012:0016
#05112:16
#05312:16
#05318:0016
#05412:16
#05418:0016
#05518:16
#0401f:0011
#05612:0024
#06012:0024
#05814:0024
#04812:0026
#0481f:0021
#05218:0026
#01210:41
#02910:41
#02858:54
#0123a0:14
#0133a0:24
#014340:14
#015340:24
#016380:14
#017380:24
#018320:14
#019320:24
#023380:1626
#027320:1626
#028380:14
#0293a0:24
#032380:0014
#033380:0024
#040320:0014
#041320:0024
#042380:0014
#043380:0024
#044340:0014
#045340:0024
#0463a0:0014
#0473a0:0024
#051320:0016
#052320:26
#055380:0016
#056380:26
