This file was generated by Ched 2.7.0.0.
#TITLE ""
#ARTIST ""
#DESIGNER ""
#DIFFICULTY 0
#PLAYLEVEL
#SONGID ""
#WAVE ""
#WAVEOFFSET 0
#JACKET ""
#REQUEST "ticks_per_beat 480"
#00002: 4
#BPM01: 115
#00008: 01
#TIL00: ""
#VOLUME: ""
#HISPEED 00
#MEASUREHS 00
#00412:2c13001300001400
#00416:0014141414000000
#0041b:00131300
#00417:000000000000000000000000000000000013130000000000
#00410:41
#06318:0012
#06312:12
#0631c:12120000
#06316:001200
#0631a:0000001200000000
#06314:000000000000000000000012000000000000000000000000
#0051b:1313001300000000
#00518:00130000
#00515:000000000013000000000000000000000000000000000000
#00512:0013000013000000
#00516:000000000000000000140000140000000013130000000000
#0051a:00000014
#00612:1313001300001400
#00616:0000001414000000
#00618:000000000013000000000000000000000000000000000000
#0061b:0013000013000013
#00617:000000000000000000000000000000000013130000000000
#00615:00130000
#0121b:000000130000000000000013000000000000000000000000
#01212:2c0000130000130013000000000000000000000000000000
#01215:00000016
#01218:0000000000000016
#01216:000000000000000000000013000000000000000000000000
#01210:41
#01312:1c0000130000000000000013000000000000000000160000
#01315:00000016
#01317:000000000000000000000013000000000000000000000000
#0131b:000000130000130013000000000000000000000000000000
#01518:000000000000000000000013000000000000000000000000
#01512:140000000000000014000000000000130000130000000000
#01515:0013
#0151b:0000000000131300
#01516:001400140000000000000000
#0151a:001400000000
#02119:000000000000000000000000000013000000000000150000
#02117:000000000000000000000000000000000013000000000000
#02112:00130015
#0211b:000000000000000000000013000000000000000000000000
#02116:00241800
#02114:0000000000180000
#0221b:0013000000000000
#02216:001300
#02214:00000014
#02212:000000130000130000000012000000000000000000140000
#02219:15
#02217:00130000
#0231b:0013001300000000
#02316:000000000000000013130000000000000000140014000000
#02312:130000000013000000000000000000000014000000000000
#02319:0000000000150000
#0231a:0000000000000014
#02317:000000000013000000000000000000000000000000000000
#06216:181400000000000000120000
#06212:00140000
#06219:0000000000000012
#0621a:00140000
#00712:00001414
#00716:1300141400000000
#00717:0013000000000000
#0071b:13
#00715:0000000000130013
#00718:0000000000130013
#0071a:00000014
#01416:000000000000000000000014000000000000000000000000
#01412:1c0000000000000013000000000000130000000000000000
#01415:000000000013000000000000000000000000000000000000
#05618:000000660000000000660000000000130000000013000000
#05612:000000000000660000000000660000000013000000000013
#0561b:0000000000001353
#05615:00000066006600660000000053001300
#05617:000000000000006600000000000000000066006600000000000000000000000000000000000000000000000000000000
#05616:000066006666000000000000
#05614:000000000066006600000066000000000000000000000000
#05613:000000000000000000000066006600000000000000000066000000000000000000000000000000000000000000000000
#0571b:130000530000000000000000000000000013000000530053
#05718:001300130000000000000000
#05712:000000130000000000000000000000000000530053000000
#05715:53130000
#05716:000000000000000000000000000000000013000000530053
#05717:000000000000000000535300
#0611b:130000000000130000000000130000000013000000000013
#06117:000000130000000000000000000000000000000000130000000000000000000000000000000000001300000000000000
#06112:0013001300180018
#06116:00000013001300000000000018000000
#00812:1c131300
#0081b:0013001300000000
#00816:000000140000140000140000140000000013130000000000
#0081a:00000014
#01616:000000141400000000000000
#01612:000000130000000000000013000000000000000000160000
#01615:00000016
#0161b:0013000000000000
#01712:1c13000000000000
#0171b:000000130000000000000013000000000000000000000000
#01715:00000016
#01718:0000000000000016
#01716:000000000014000014000000000000000000000000000000
#01812:1c0000000000000000000014000000000000000000000000
#0181b:001300
#01818:000000000013000000000000000000000000000000000000
#0181a:000000000000000000000014000000000000240000000000
#02612:1513000000000000
#0261b:0013130000000000
#02617:001300
#02618:00000014
#0261a:0000000000000014
#02616:00130000
#0261c:000000000000000000000012000000000000000000000000
#0321b:0000000000130013
#03217:00000013
#03212:131300002c001300
#03216:0000131300130013
#0321c:1212000000000000
#0321a:0000121200000000
#03317:13
#03312:130000000013130000000000000000000000000000130000
#0331b:00130013
#03316:000000000000000000000000000000000000000000000000000000000000000000000000000000000000000000000000000000000000000000000000000000000000000000000000000000000000000000000000000000000000000000000000000000000000000000000000000000000000000000000000000000000000000000000000000000000000000000000000000000000000000000000000000000000000000000000000000000000000000000000000000000000000000000000000000000000000000000000000000000000000000000000000000000000000000000000000000000000000000000000000000000000000000000000000000000000000000000000000000000000000000000000000000000000000000000000000000000000000000000000000000000000000000000000000000000000000000000000000000000000000000000000000000000000000000000000000000000000000000000000000000000000000000000000000000000000000000000000000000000000000000000000000000000000000000000000000000000000000000000000000000000000000000000000000000000000000000000000000000000000000000000000000000000000000000000000000000000000000000000000074740000000000000000000000000000000000000000000000000000000000000000000000000000000000000000000000000000000000000000000000000000000000000000000000000000000000000000000000000000000000000000000000000000000000000000000000000000000000000000000000000000000000000000000000000000000000000000000000000000000000000000000000000000000000000000000000000000000000000000000000000000000000000000000000000000000000000000000000000000000000000000000000000000000000000000000000000000000000000000000000140000000000000000000000000000000000000000000000000000000000000000000000000000000000000000000000000000000000000000000000000000000000000000000000000000000000000000000000000000000000000000000000000000000000000000000000000000000000000000000000140000000000000000000000000000000000000000000000000000000000000000000000000000000000000000000000000000000000000000000000000000000000000000000000000000000000000000000000000000000000000000000000000000000000000000000000000000000000000000000000
#03416:130000000014140000000000000000000000000000130000
#03412:0000130000130000
#03419:00000013
#0341b:1300000013000013
#03414:00000013
#03417:0000000000130000
#03612:230000001c130000
#03614:00000013
#03616:0000000000000013
#03615:0000230000290000
#03617:00000027
#03619:0000000000000025
#0361b:00230000
#03618:23
#06016:000000000000000000530000000000180000000013180000
#06012:1300000000000000000000002c0000000013180000000013
#06017:13
#06018:005300000000130000000000000000000000000000000000
#06013:005300000000130000000000000000000000000000000000
#06019:000053000000005300000000000000000000000000000000
#0601a:000000530000000053000000000000000000000000000000
#0601b:0000005300000000
#06014:000053000000005300000000000000000000000000000000
#06015:000000530000000053000000000000000000000000000000
#0371b:0000130000130000
#03717:13
#03712:13
#03716:000000000013130000000000000000140000140000140000
#00012:130000000000130000000000130000000000130000530053
#0001c:1200005212000052
#00016:0000001400000000
#0001a:0052120000521200
#00015:000000000013
#00116:0000001400000014
#00112:00131313
#0011c:1200005212000052
#0011a:0052120000521200
#00115:53
#04016:1400001800000000
#0401a:0014000000000000
#04018:00160000
#0401c:12
#04012:0000000000000000000000002c0000130000000000000013
#0401b:0000000000131300
#04017:000000000000000000000000000000000000000013000013
#0401f:0011
#00212:1200005212000052
#00214:0052120000521200
#0021b:00131313
#00216:0000001400000014
#00218:26
#0201b:13000000000000000000000000000000005300000000000000000000000000000000000000000000000000000000000000000000000000002300000000000000
#02012:250000000000250000000014000000000000140000230000
#02016:000000000000000000000000140000140014000000000000
#0201a:000000000000001400000000
#02010:41
#02017:00000000000000000000000000000053000000000000000000000000000000000000000000000000000000000000000000000000000000000000000000000000
#02019:00530000
#02514:000000000000000000000000000013180000000000000000
#02516:000000000000240000000000000000000013000000000000
#02519:00000015
#0251b:00130000
#02512:000000000000000000000013180000000000000000150000
#02412:130000000000000000000000000000000000000000000000000000000000000000000000000000000000000000000000000000530000000000000000000000000000000000000000000000000000000000000000000000000000000000000000000000000000000000000000000000001400000000000000000000000000000000000000000000000000000000000000000000000000000000000000000000000000000000000000230000000000000000000000000000000000000000000000
#0241a:000000000000000000000014000000000000140000000000
#02416:000000000000000000000000000000000000000000000000000000000000000000000000000000000000000000530000000000000000000000000000000000000000000000000000000000000000000000000000000000000000000000000000140000000000000000000000000000000000000000000000140000000000000000000000000000001400000000000000000000000000000000000000000000000000000000000000000000000000000000000000000000000000000000000000
#02419:25250000
#0241b:0000000000000023
#02414:00530000
#02712:00130013002c2926
#02717:000000000000000013130000000000000000000000000000
#0271b:130000000013000000000000000000000000000000000000
#02716:000000000013000000000000000000000000000000000000
#02912:2300130013001353
#02915:000000000000000000130000000000000000000013000013
#0291c:1252000052520000
#02910:41
#0291a:0000525200005252
#03012:530000000000130000000013000000000000000000130000
#03015:0000001353001300
#0301c:5252000052520000
#0301a:0000525200005252
#03112:2c00130013530000
#03115:000000000000000000130000000013000000130000000000
#0311c:0012000012120000
#0311a:0000121200001212
#03518:0000000000000000000000000000000000000000000000000000000000000000000000000000000000000000000000001300000000000000000000000000000000000000000000000000000000000000005300000000000000000000000000530000000000000000000000000000000000000000000000000000000000000000
#03517:13000000000000000000000000000000000000000000000000000000000000000000000000000000005300000000005300000000000000000000000000000000
#0351b:00000000000000000000000000000000000000000000000000000000000000000000000000000053000000000000000000530000000000000000000000000000
#03516:00000000000000000000000000000000000000000000000000000000000000000000000000000053000000000000000000530000000000000000000000000000
#03514:0000000000535300
#03512:00000000000000000000000000000000000000000000000000000000000000000000000000000000005300000000005300000000000000000000000000000000
#0351a:0000000000000000000000000000000000000000000000000000000000000000000000000000000000000000000000000000000000000000000000000000000000000000000000000000000000000053000000000000000000000000000000000053000000000000000000000000000000000000000000000000000000000000
#03519:0000000000535300
#03515:0000000000000000000000000000000000000000000000000000000000000000000000000000000000000000000000000000000000000000000000000000000000000000000000000000000000000053000000000000000000000000000000000053000000000000000000000000000000000000000000000000000000000000
#03513:0000000000000000000000000000000000000000000000000000000000000000000000000000000000000000000000000000000000000000000000000000000000000000000000000000000000000000005300000000000000000000000000530000000000000000000000000000000000000000000000000000000000000000
#03816:1300000000130000
#0381b:1300000000130000
#03817:000000000013130000000000000000000000000000130000
#03812:0000130000000013
#03814:00000013
#03819:00000013
#03810:41
#03915:0000000000000000000000000000000000000000000000000000000000000000000000000000000000000000000000001300000000000000000000000000000000000000000000000000000000000000005300000000000000000000000000530000000000000000000000000000000000000000000000000000000000000000
#03916:13000000000000000000000000000000000000000000000000000000000000000000000000000000005300000000005300000000000000000000000000000000
#03912:00000000000000000000000000000000000000000000000000000000000000000000000000000053000000000000000000530000000000000000000000000000
#03917:00000000000000000000000000000000000000000000000000000000000000000000000000000053000000000000000000530000000000000000000000000000
#03919:0000000000535300
#0391b:00000000000000000000000000000000000000000000000000000000000000000000000000000000005300000000005300000000000000000000000000000000
#03913:0000000000000000000000000000000000000000000000000000000000000000000000000000000000000000000000000000000000000000000000000000000000000000000000000000000000000053000000000000000000000000000000000053000000000000000000000000000000000000000000000000000000000000
#03914:0000000000535300
#03918:0000000000000000000000000000000000000000000000000000000000000000000000000000000000000000000000000000000000000000000000000000000000000000000000000000000000000053000000000000000000000000000000000053000000000000000000000000000000000000000000000000000000000000
#0391a:0000000000000000000000000000000000000000000000000000000000000000000000000000000000000000000000000000000000000000000000000000000000000000000000000000000000000000005300000000000000000000000000530000000000000000000000000000000000000000000000000000000000000000
#04115:00160000
#04112:000000161c131300
#0411b:000000000000130000000000000000130000000000000013
#04116:000000000000000000000000000000000000000013000013
#04118:0000001300000000
#04315:000000000000000000000000000000000000000000000013
#0431b:0013000000000000
#0431a:000000140014
#04316:000000000000001400140000
#04312:000014
#0441b:000000130000130000000000000000130000000000000013
#04418:13
#04412:0013130000130000
#04416:00000014
#0441a:000000000014
#04216:000000000000000000000000000000000000000000000014
#04215:0000161300000000
#04218:000000000000000000160000000000000013000000000000
#04212:00131c00
#0421b:000000000013
#04515:0000161300000000
#04512:0000000000001300000000001c0000130000000014000013
#04518:0000001600000000
#0451b:0000000000130000
#04516:000000000000000000000000000000000014000000000000
#04612:0000000000000000001600001c0000000000000013000014
#04615:000000000000160000000000000000000013000000000000
#0461b:00130000
#04618:0000001300000000
#0461a:000000000000000000000000000000000000000000000014
#05014:000013180000000000000000000000000000000000000000
#05016:000000000013000000000000000000000000130000000000
#05019:00150000
#05012:1800001515130000
#05017:000000000013
#0501b:0000000000131300
#0501c:000000000000000000000000000000000000000000000012
#05115:00190000
#05112:0000001c00130013
#05117:000000000000000000000000000000000000000013130000
#0511b:000000000000000000000000130000000013000000000000
#05116:001400000000000000000000000000000013000000000000
#0491b:0000002300001300
#04912:000014180000000000230000000000000000000000000013
#04916:180000000014180000000000000000000000240000000000
#04910:0041
#0521a:000000000014000000000000000000000000000000000000
#05212:000000180000000000180000250000000000250000000014
#05216:000000181400000000000000
#0521b:00000000000000000000000000000000000000000000000000000000000000001300000000000000000000000000000000530000000000000000000000000000
#05217:00000000000000000000000000000000000000000000000000000000000000000000000000000000000000000000005300000000000000000000000000000000
#05219:00000053
#04812:00000000000000002300000000000000000000000000000023000000000000001300000000000000000000000000000000530000000000000000000000000000
#0481a:000000000000000000000000000000000000000000000014
#0481b:0023002300000000
#04818:00230000
#04815:00230000
#04819:00002525
#0481f:0021
#04816:54000000000000000000000000000000000000000000000000000000000000000000000000000000000000000000005300000000000000000000000000000000
#04814:00000053
#05312:1800182300001300
#0531a:001400000000000000000000
#05316:000000180014000000000000000000000000240000000000
#0531b:000000000000000000230000000000000000000000000013
#05419:000013000000000000150000150000000000000000000000
#05417:000000000013000000000000000000000000130000000000
#05412:000000000000150000000000000000130000130000000012
#0541b:0000000000130000
#05416:180000000013
#05414:0018000000000000
#0551b:0000000000130013
#05516:001400000000000000000000000000000000000013130000
#05517:000000000000000000000000000000000013000000000000
#05512:0000000000001900001c0000130000000013000000000000
#05812:5300530000001300000000002c0000000000130000530000
#05817:535300130000000000000000
#05815:000000000000000000000000000000130000000013000000
#0581b:000000530000000000000000000000000013000000000013
#05818:0000000000005313
#05816:0053000000000000
#05912:130000530000000000000000000000000013000000530000
#05915:001300130000000000000000
#0591b:000000130000000000000000000000000000530053000000
#05918:53130000
#05917:000000000000000000000000000000000013000000530000
#05916:000000000000000000535300
#01112:1313001300000023
#0111b:1300130000000023
#01119:0000000000230000
#0111a:00000023
#01114:0000000000230000
#01113:00000023
#01116:0024
#00912:1313001300001400
#00915:00130000
#00918:000000000013000000000000000000000000000000000000
#0091b:0013000013000000
#00916:0000001414000000
#00917:000000000000000000000000000000000013130000000000
#0101b:1313001300000000
#01016:000000000000000000140000140000000013130000000000
#01015:000000000013000000000000000000000000000000000000
#01012:0013000013000013
#0101a:00000014
#01018:00130000
#00312:220000000000000000000000000000000000000000000000000000000000000000000000000000000000000000000000000000000000000000000000000000000000000000000000000000000000000000000000000000000000000000000000000000000000000000000000000000000000000000000000000000000000000000000000000000000000000000000000000000000000000000000000000000000000000000000000000000000000000000000000000000000000000000000000000000000000000000000000000000000000000000000000000000000000000000000000000000000000000000000000000000000000000000000000000000000000000000000000000000000000000000000000000000000000000000000000000000000000000000000000000000000000000000000000000000000000007c5c00000000000000000000000000000000000000000000000000000000000000000000000000000000000000000000000000000000000000000000000000000000000000000000000000000000000000000000000000000000000000000000000000000000000000000000000000000000000000000000000000000000000000000000000000000000000000000000000000000000000000000000000000000000000000000000000000000000000000000000000000000000000000000000000000000000000000000000000000000000000000000000000000000000000000000000000000000000000000000000000000000000000000000000000000000000000000000000000000000000000000000000000000000000000000000000000000000000000000000000000000000000000000000000000000000000000000
#0031c:22
#01912:2400000000230023
#01915:00000023
#01918:00000023
#0191b:0000000000230023
#01916:000000000000000000000000000000000000000000000000000000000000000000000000000000000000000000000000000000000000000000000000000000000000000000000000000000000000000000000000000000000000000000000000740000000000000000000000000000000000000000000000000000000000000000000000000000000000000000000000000000000000000000000000000000000000000000000000000000000000000000000000000000000000000000000074540000000000000000000000000000000000000000000000000000000000000000000000000000000000000000000000000000000000000000000000000000000000000000000000000000000000000000000000000000000000000000000000000000000000000000000000000000000000000000000000000000000000000000000000000000000000000000000000000000000000000000000000000000000000000000000000000000000000000000000000000000000000000000000000
#02812:23
#02817:00000052
#04712:00240000
#0471a:0024
#04716:000000000000000000000000000000000000000000000000000000000000000000000000000000000000000000000000000000000000000000000000000000000000000000000000000000000000000000000000000000000000000000000000000000000000000000000000000000000000000000000000000000000000000000000000000000000000000000000000000000000000000000000000000000000000000000000000000000000000000000000000000000000000000000000000000000000000000000000000000000000000000000000000000000000000000000000000000000000000000000000000000000000000000000000000000000000000000000000000000000000000000000000000000000000000000000000000740000000000000000000000000000000000000000000000000000000000000000000000000000000000000000000000000000000000000000000000000000000000000000000000000000000000000000000000000000000000000000000074
#00456:0054
#00452:00000024
#00656:0054
#00652:00000024
#0125b:000000000000000000000053000000000000000000000000
#01252:0000000000460000
#01255:00000046
#01258:0000000000000046
#02152:14530065
#02156:00443800
#02154:0000000000380000
#02159:0000000000000025
#0215a:14
#02356:0000005300004400
#02352:5313
#0235b:0000005300000000
#02359:0000000000450000
#0235a:0000000000000044
#02357:000000000053000000000000130000000000000000000000
#01452:0000000000630000
#01457:00000013
#0145b:00000013
#02257:00530000
#02252:350000000000000000000052000000000000000000340000
#02254:00000034
#02259:45
#02256:0000000000340000
#05752:0063001300000000
#05758:00630000
#05755:00530000
#0575b:0000001300000000
#0615b:63630000
#06157:00230000000000230000000000000000
#06152:0053005300380038
#06156:00000023002300000000000038000000
#06252:00541400
#0625a:00641400
#06256:38
#06358:0012
#00756:6300645400000000
#00757:0053000000000000
#0075a:00001414
#00752:00001414
#00758:0000000000130013
#00755:0000000000130013
#01355:00000036
#01352:000000000000000000000063000000000000000000360000
#01358:0000000000360000
#01652:000000000000000000000063000000000000000000360000
#01658:0000000000330000
#0165b:0000000000330000
#01655:00000036
#03357:63
#0335b:00530000
#03352:00630000
#03456:53
#03452:00230000
#03655:0000000000490000
#03657:00000047
#03659:0000000000000045
#06052:00000048
#06056:0000000000480048
#02052:3500350000003453
#0205b:53000000000000000000000000000000005300000000000000000000000000000000000000000000000000000000000000000000000000005300000000000000
#04056:5400004800000000
#0405a:0044000000000000
#04058:00460000
#04052:000000000000000000000000000000000000000000000063
#0035c:22
#00352:22
#01159:0000000000130000
#01154:0000000000130000
#01153:00000013
#0115a:00000013
#0115b:6300630000000013
#01152:0053005300000013
#01156:0014
#01552:00000053
#0155b:00000053
#01755:0000000000434600
#0175b:000000000000000000000053000000000000000000000000
#01758:0000000000000046
#01752:0000000000430000
#02559:00000055
#0255b:00630000
#02552:1400000048000025
#02554:0000000000480000
#0255a:14
#02556:00340000
#02652:35
#02659:45
#02658:00000044
#0265a:0000000000000044
#02656:0000630000440000
#0265c:000000000000000000000062000000000000000000000000
#02452:63000000000000000000000000000000006300000000000000000000000000000000000000000000000000000000000000000000000000006300000000000000
#0245a:00000044
#02459:45450000
#0245b:0000000000000063
#02757:0000006300000000
#0275b:6313
#02752:0000006300000000
#02756:000000000063000000000000130000000000000000000000
#02852:53
#03252:0013000000000000
#03256:0000001300000000
#03757:63
#03756:00230000
#0375b:00230000
#03856:53
#03857:00230000
#03852:00230000
#0355b:0000000000000033
#03556:0000000000000033
#04155:00360000
#04152:0000003600000000
#0415b:000000000000000000000000000000000000000000000053
#04158:0036000000000000
#0435b:0053000000000000
#04352:00130000
#04356:00130000
#04255:00460000
#04258:0000004600000000
#04252:0046000000000000
#0445b:000000000000630000000000000000000000000000000053
#04452:00630000
#04555:0043460000000000
#04558:0000004600000000
#04552:000000430000000000000000000000000000000000000063
#04655:00360000
#04652:0000003600000000
#04658:0033000000000000
#0465b:0033000000000000
#0465a:000000000000000000000000000000000000000000000064
#05059:00554500
#05052:4800002535000000
#05056:00000063
#05054:0048000000000000
#0505c:000000000000000000000000000000000000000000000062
#05155:00490000
#05152:0000004c00000063
#05157:0000000000000063
#0515b:0063
#05156:002400000000000000000000000000000063000000000000
#05158:0046000000000000
#0495b:0000006300006300
#04956:00480034
#04952:0000006314000000
#0495a:0014
#05252:0038003835003500
#05256:13380000
#0525b:13000000000000000000000000000000000000000000000000000000000000005300000000000000000000000000000000530000000000000000000000000000
#04852:00000000000000000000000000000000000000000000000000000000000000006300000000000000000000000000000000630000000000000000000000000000
#04859:00004545
#05352:0000385314005300
#0535b:0000005300000000
#0535a:0014
#05356:00000044
#05452:000000000000650000000000350000000000000000000052
#05459:0000002545000000
#05457:00000053
#05456:38
#05454:0038000000000000
#05556:002400000000000000000000000000000000000000530000
#0555b:0000000000000053
#05557:000000000000000000000000000000000053000000000000
#05552:0036393c53000000
#05652:1316
#05657:13
#05852:00530000
#05857:00530000
#0595b:0053001300000000
#05955:00530000
#05958:00630000
#05952:0000001300000000
#03952:0000000000000043
#03957:0000000000000043
#00556:0064
#0055a:00000024
#00856:0064
#0085a:00000024
#01056:0064
#0105a:00000024
#00956:0054
#00952:00000024
#04752:00640000
#0475a:0064
#01852:000000000000000000000054000000000000000000000000
#0185a:00000054
#01952:54
#003320:122c
#0033c1:12
#003321:000000000000000000000000000000000000000000000000000000000000000000000000000000000000000000000000000000000000000000000000000000000000000000000000000000000000000000000000000000000000000000000000000000000000000000000000000000000000000000000000000000000000000000000000000000000000000000000000000000000000000000000000000000000000000000000000000000000000000000000000000000000000000000000000000000000000000000000000000000000000000000000000000000000000000000000000000000000000000000000000000000000000000000000000000000000000000000000000000000000000000000000000000000000000000000000000000000000000000000000000000000000000000000000000000000000000002c0000000000000000000000000000000000000000000000000000000000000000000000000000000000000000000000000000000000000000000000000000000000000000000000000000000000000000000000000000000000000000000000000000000000000000000000000000000000000000000000000000000000000000000000000000000000000000000000000000000000000000000000000000000000000000000000000000000000000000000000000000000000000000000000000000000000000000000000000000000000000000000000000000000000000000000000000000000000000000000000000000000000000000000000000000000000000000000000000000000000000000000000000000000000000000000000000000000000000000000000000000000000000000000000000000000000000000
#004360:0014
#004320:000000000000000000000000000000000024000000000000
#004320:00000014
#005360:24
#005360:0014
#0053a0:000000000000000000000000000000000024000000000000
#0053a0:00000014
#006360:24
#006360:0014
#006320:000000000000000000000000000000000024000000000000
#006320:00000014
#006360:0000000000000024
#007360:13
#007320:0023000000000000
#007371:0013000000000000
#0073b1:00230000
#007360:00140000
#007320:0000002400000000
#007361:0000001400000000
#0073a1:0024
#008361:0014
#0083a1:000000000000000000000000000000000024000000000000
#0083a1:00000014
#009361:24
#009361:0014
#009321:000000000000000000000000000000000024000000000000
#009321:00000014
#010361:24
#010361:0014
#0103a1:000000000000000000000000000000000024000000000000
#0103a1:00000014
#010361:0000000000000024
#0113b1:13
#011371:0023000000000000
#011320:0013000000000000
#011360:00230000
#0113b1:00130000
#011361:0000002400000000
#011320:0000001300000000
#011360:0024
#012360:000000142400000000000000
#0123b0:000000000000000000000013000000000000000000000000
#012320:0000000000260000
#013360:000000142400000000000000
#013320:000000000000000000000013000000000000000000000000
#013380:0000000000260000
#0143b0:000000130023000000000000000000000000000000000000
#014380:000000132300000000000000
#0143b0:000000000000000000000013000000000000230000000000
#014321:0000000000130000
#014371:00000023
#0153b1:00000013
#016351:23
#015320:00000013
#016380:23
#0163b0:000000132300000000000000
#016320:000000000000000000000013000000000000000000000000
#016380:0000000000230000
#0163b1:000000000000000000000013000000230000000000000000
#017321:000000132300000000000000
#0173b1:000000000000000000000013000000000000000000000000
#017351:0000000000230000
#017320:000000000000000000000013000000230000000000000000
#018320:000000130023000000000000000000000000000000000000
#018350:000000132300000000000000
#018320:000000000000000000000014000000000000000000000000
#018360:0000000000540000
#019360:00240000
#0183a1:00000014
#018361:0000000000000054
#019361:000000000000000000000000000000000000000000000000000000000000000000000000000000000000000000000000000000000000000000000000000000000000000000000000000000000000000000000000000000000000000000000000000000000000000000000000000000000000000000000000000000000000000000000000000000000000000000000000000000000000000000000000000000000000000000000000000000000000000000000000000000000000000000000024000000000000000000000000000000000000000000000000000000000000000000000000000000000000000000000000000000000000000000000000000000000000000000000000000000000000000000000000000000000000000000000000000000000000000000000000000000000000000000000000000000000000000000000000000000000000000000000000000000000000000000000000000000000000000000000000000000000000000000000000000000000000000000000000
#019322:14
#019362:0054000024000000
#0203b2:13
#020372:00000000000000000000000000000023000000000000000000000000000000000000000000000000000000000000000000000000000000000000000000000000
#0203b2:00000000000000000000000000000000001300000000000000000000000000000000000000000000000000000000000000000000000000000000000000000000
#020372:000000000000000000000023000000000000000000000000
#0203b2:0000000000000013
#021322:24
#020321:0000000000000013
#0213a1:24
#021321:00130000
#021361:000000000000000000000023000000000000000000000000
#021321:00000015
#021391:0000000000000055
#022321:25
#022371:00130000
#0223b1:002300
#022321:000000000000000000000012000000000000000000000000
#022361:0000000000240000
#0223c2:000000000000000000000012000000000000000000000000
#023352:26
#023321:13
#023361:0023000000000000
#023371:000000000013000000000000000000000000000000000000
#0233b1:002300
#023361:0000001300000000
#023321:0023
#0233b2:0000001300000000
#023372:0023
#024322:13
#024362:00000000000000000000000000000023000000000000000000000000000000000000000000000000000000000000000000000000000000000000000000000000
#024322:00000000000000000000000000000000001300000000000000000000000000000000000000000000000000000000000000000000000000000000000000000000
#024362:000000000000000000000023000000000000000000000000
#024322:0000000000000013
#0253a2:24
#0243b1:0000000000000013
#025321:24
#0253b1:00130000
#025371:000000000000000000000023000000000000000000000000
#025391:00000015
#025321:0000000000000055
#026391:25
#026361:00130000
#026321:002300
#0263c1:000000000000000000000012000000000000000000000000
#026361:0000000000240000
#026322:000000000000000000000012000000000000000000000000
#027352:26
#0273b1:13
#027371:0023000000000000
#027361:000000000013000000000000000000000000000000000000
#027321:002300
#027371:0000001300000000
#0273b1:0023
#027322:0000001300000000
#027362:0023
#028322:13
#028372:00003222
#033372:13
#0333b2:000000000023000000000000000000000000000000000000
#0333b2:00130000
#033362:0024
#033321:00130000
#033361:000000000000000000000000000000000000000000000000000000000000000000000000000000000000000000000000000000000000000000000000000000000000000000000000000000000000000000000000000000000000000000000000000000000000000000000000000000000000000000000000000000000000000000000000000000000000000000000000000000000000000000000000000000000000000000000000000000000000000000000000000000000000000000000000000000000000000000000000000000000000000000000000000000000000000000000000000000000000000000000000000000000000000000000000000000000000000000000000000000000000000000000000000000000000000000000000000000000000000000000000000000000000000000000000000000000000000000000000000000000000000000000000000000000000000000000000000000000000000000000000000000000000000000000000000000000000000000000000000000000000000000000000000000000000000000000000000000000000000000000000000000000000000000000000000000000000000000000000000000000000000000000000000000000000000000000000000000000000000000000024000000000000000000000000000000000000000000000000000000000000000000000000000000000000000000000000000000000000000000000000000000000000000000000000000000000000000000000000000000000000000000000000000000000000000000000000000000000000000000000000000000000000000000000000000000000000000000000000000000000000000000000000000000000000000000000000000000000000000000000000000000000000000000000000000000000000000000000000000000000000000000000000000000000000000000000000000000000000000000000000000000000000000000000000000000000000000000000000000000000000000000000000000000000000000000000000000000000000000000000000000000000000000000000000000000000000000000000000000000000000000000000000000000000000000000000000000000000000000000000000000000000000000000000000000000000000000000000000000000000000000000000000000000000000000000000000000000000000000000000000000000000000000000000000000000000000000000000000000000000000000000000000000000000000000000000000000000000000000000000000
#034362:13
#034322:000000000023000000000000000000000000000000000000
#034322:00130000
#034362:0023
#035322:13
#035352:0023000000000000
#035381:0013000000000000
#0353b1:00230000
#035322:00130000
#035352:0000002300000000
#0353b2:00000000000000000000000000000000000000000000000000000000000000001300000000000023000000000000000000000000000000000000000000000000
#035361:00000000000000000000000000000000000000000000000000000000000000001300000000000023000000000000000000000000000000000000000000000000
#035371:00000000000000000000000000000000000000000000000000000000000000000000000000000000001300000000002300000000000000000000000000000000
#035322:00000000000000000000000000000000000000000000000000000000000000000000000000000000001300000000002300000000000000000000000000000000
#0353b2:00000000000000000000000000000000000000000000000000000000000000000000000000000000000000000000000000130000000000002300000000000000
#035361:00000000000000000000000000000000000000000000000000000000000000000000000000000000000000000000000000130000000000002300000000000000
#036381:13
#036321:0023000000000000
#036322:13
#036382:0023000000000000
#036352:00130000
#0363b2:0000002300000000
#0363b1:00130000
#036351:0000002300000000
#037371:13
#0373b1:000000000023000000000000000000000000000000000000
#037361:00130000
#037321:0023
#0373b2:00130000
#037372:0023
#037322:000000000000000000000000000000000013230000000000
#0373b2:000000000000000000000000000000000000000013230000
#038362:13
#038322:000000000023000000000000000000000000000000000000
#038372:00130000
#0383b2:0023
#038321:00130000
#038361:0023
#0393b1:13
#039381:0023000000000000
#039352:0013000000000000
#039322:00230000
#0393b1:00130000
#039381:0000002300000000
#039321:00000000000000000000000000000000000000000000000000000000000000001300000000000023000000000000000000000000000000000000000000000000
#039372:00000000000000000000000000000000000000000000000000000000000000001300000000000023000000000000000000000000000000000000000000000000
#039362:00000000000000000000000000000000000000000000000000000000000000000000000000000000001300000000002300000000000000000000000000000000
#0393b1:00000000000000000000000000000000000000000000000000000000000000000000000000000000001300000000002300000000000000000000000000000000
#039321:00000000000000000000000000000000000000000000000000000000000000000000000000000000000000000000000000130000000000002300000000000000
#039372:00000000000000000000000000000000000000000000000000000000000000000000000000000000000000000000000000130000000000002300000000000000
#040362:14
#040322:0000002400000000
#040362:00000014
#040322:000000000024
#040322:000000000000000000000000000000000000000000000013
#041382:0026000000000000
#041362:00000014
#0413a2:000000000024
#0413b2:000000000000000000000000000000000000000000000013
#042322:0026000000000000
#042322:000000000000000000000000000000130023000000000000
#042352:000000000000000000132300
#042322:000000000000000000000000000000000000000000000013
#043322:00230000
#0433b1:0013000000000000
#043361:00230000
#044321:00130000
#044381:0023
#0443b2:00130000
#044352:0023
#044322:00000013
#044362:000000000023
#0443b2:000000000000000000000000000000000000000000000013
#045352:0023000000000000
#044321:000000000000000000000000000000000000000000000013
#045321:0023000000000000
#0453b1:00000013
#045371:000000000023
#045321:000000000000000000000000000000000000000000000013
#046381:0023000000000000
#0453b2:000000000000000000000000000000000000000000000013
#0463b2:0023000000000000
#0463b2:000000000000000000000000000000130023000000000000
#046382:000000000000000000132300
#0463a2:000000000000000000000000000000000000000000000014
#047362:0054000000002400
#047321:00140000
#047361:000000000000000000000000000000000000000000000000000000000000000000000000000000000000000000000000000000000000000000000000000000000000000000000000000000000000000000000000000000000000000000000000000000000000000000000000000000000000000000000000000000000000000000000000000000000000000000000000540000000000000000000000000000000000000000000000000000000000000000000000000000000000000000000000000000000000000000000000000000000000000000000000000000000000000000000000000000000000000000000000000000000000000000000000000000000000000000000000000000000000000000000000000000000000000000000000000000000000000000000000000000000000000000000000000000000000000000000000000000000000000000000000000000000000000000000000000000000000000000000000000000000000000000000000000000000000000000000024
#0473a0:0014
#047360:0000000000540000
#048360:24
#048320:0013
#048360:00000000000000000000000000000000000000000000000000000000000000000000000000000000000000000000002300000000000000000000000000000000
#048320:00000000000000000000000000000000000000000000000000000000000000000000000000000000000000000000000000130000000000000000000000000000
#048360:000000000000000000000000000000000000000000000023
#049320:0000001300000000
#0493a0:0024
#0493b1:0000001300000000
#049321:0024
#0493b1:00000013
#049371:000000000000000000000000000000000000000000000023
#050391:00152500
#050321:0000005500000000
#050361:00000013
#050321:000000000023
#0503c1:000000000000000000000000000000000000000000000012
#051361:005400000000000000000000000000000000000000000000
#051381:0026000000000000
#050320:000000000000000000000000000000000000000000000012
#051320:0029
#0513b1:0013
#051371:0000000000230000
#051361:000000000000000000000000000000000013000000000000
#051321:000000000023
#051371:0000000000000013
#0523b1:23
#051320:0000000000000013
#052360:23
#0523b0:0013
#052370:00000000000000000000000000000000000000000000000000000000000000000000000000000000000000000000002300000000000000000000000000000000
#0523b0:00000000000000000000000000000000000000000000000000000000000000000000000000000000000000000000000000130000000000000000000000000000
#052370:000000000000000000000000000000000000000000000023
#0533b0:0000001300000000
#053320:0024
#053321:0000001300000000
#0533a1:0024
#053321:00000013
#053361:000000000000000000000000000000000000000000000023
#054321:00152500
#054391:0000005500000000
#054371:00000013
#0543b1:000000000023
#054321:000000000000000000000000000000000000000000000012
#055361:005400000000000000000000000000000000000000000000
#055321:0026000000000000
#0543c0:000000000000000000000000000000000000000000000012
#055350:0029
#055321:0013
#055361:0000000000230000
#055371:000000000000000000000000000000000013000000000000
#0553b1:000000000023
#055361:0000000000000013
#056321:23
#0553b0:0000000000000013
#056370:23
#057320:0013002300000000
#057350:00330000
#057381:00130000
#0573b1:0000002300000000
#057361:0000000013230000
#0573b0:0000000013230000
#058320:00130000
#058360:0000002300000000
#058371:00130000
#0583b1:0000002300000000
#0593b1:0013002300000000
#059381:00330000
#059350:00130000
#059320:0000002300000000
#059320:0000000013230000
#059371:0000000013230000
#0613b1:1323000000000000
#061371:00530000000000000000000000000000
#061320:0013230000000000
#061360:00000053000000000000000000000000
#0613b1:0000132300000000
#061361:00000000005300000000000000000000
#061320:0000001323000000
#061370:00000000000000530000000000000000
#062320:0014340000000000
#0623a0:0024
#0623a1:0014340000000000
#062321:0024
#0009c0:12
#0009a0:0022000000000000
#0009a0:00120000
#0009c0:0000002200000000
#0009c0:0012
#0009a0:0000000000220000
#0009a0:00000012
#0009c0:0000000000000022
#000951:000000000013
#000921:000000000000000000000000000000000000000000530053
#001951:23
#0019c0:12
#0019a0:0022000000000000
#0019a0:00120000
#0019c0:0000002200000000
#0019c0:0012
#0019a0:0000000000220000
#0019a0:00000012
#0019c0:0000000000000022
#002920:12
#002940:0022000000000000
#002940:00120000
#002920:0000002200000000
#002920:0012
#002940:0000000000220000
#002940:00000012
#002920:0000000000000022
#0299c0:1252000052520000
#0299a0:0000525200005252
#0309c0:5252000052520000
#0309a0:0000525200005252
#0319c0:22
#029951:000000000013
#029921:0000000000000023
#029951:000000000000000000000000000000000000000000000013
#030921:23
#030921:000000000000000000000013000000000000000000000000
#030951:0023
#031950:000000000000001300000000
#031920:0000000000230000
#056920:000000000000000000000000000000000013000000000000
#056950:00000023
#056980:000000000013
#0569b0:0000000000000023
#056920:000000000000000000000000000000000000000000000013
#057950:23
#057980:001300000000000000000000
#0579b0:0023000000000000
#057960:000000000000000000000000000000000013000000530053
#057920:000000000000000000535300
#058920:535300000000000000000000
#058960:0023000000000000
#0579b1:000000000000000000000000000000000013000000530053
#057971:000000000000000000535300
#058971:535300000000000000000000
#0589b1:0023000000000000
#0589b1:000000000000000000000000000000000013000000000000
#058981:00000023
#058951:000000000013
#058921:0000000000000023
#0589b1:000000000000000000000000000000000000000000000013
#059981:23
#059951:001300000000000000000000
#059921:0023000000000000
#059921:000000000000000000000000000000000013000000230000
#059961:000000000000000000535300
#059970:000000000000000000000000000000000013000000230000
#0599b0:000000000000000000535300
#060920:13
#060950:0023000000000000
#060971:13
#0609a1:0023000000000000
#060931:00130000
#060961:0000002300000000
#060980:00130000
#0609b0:0000002300000000
