This file was generated by Ched 2.7.0.0.
#TITLE ""
#ARTIST ""
#DESIGNER ""
#DIFFICULTY 0
#PLAYLEVEL
#SONGID ""
#WAVE ""
#WAVEOFFSET 0
#JACKET ""
#REQUEST "ticks_per_beat 480"
#00002: 4
#BPM01: 86
#00008: 01
#TIL00: ""
#VOLUME: ""
#HISPEED 00
#MEASUREHS 00
#00012:12
#0001a:000012000000000000120000000000000000000000000000
#00016:0012000000000000
#00018:000000000012000000000000120000000000000000000000
#00014:00121200
#00017:00000012
#00316:001200000000000000000000
#0031a:0012000000000000
#00314:000000000012000000000000000000000000000000000000
#00318:0000121200000000
#00312:0000001200000000
#0031c:12
#00418:000013000000000000130000000000000000000000000000
#00412:2313001300001300
#0041b:230000000013000000000000130000000000000000000000
#00415:00130000
#00410:41
#0071b:1313001300000000
#00715:000013000000000000000000130000000000000013000013
#00712:000000000013000000130000000000000000130000000000
#00718:0000130013000013
#00612:2313001300130000
#00618:000013000000000000130000000000230000000000000000
#0061b:000000000013000000000000230000000000230000000000
#00615:00130000
#00818:130000000000000000000013000000000000000000000000
#00812:00130000
#0081b:000000000000000013000000000000130000000000000000
#00815:0000001313000000
#00816:0000000000130000
#00810:41
#0091b:130000000000130000000000000000000000000000000013
#00912:130000000000000013000000000000130000000000000000
#00918:0000001313000000
#00915:000000000000000000000013000000000000000000000000
#00917:0000000000130000
#01016:13130000
#01012:000000130000000000000000000000000000000000000013
#0101b:000000000013000000000000000000000000000013000000
#01017:000013000000000000130013000000000000000000000000
#01018:000000000000000000000000000000000013000000000000
#01015:00000013
#01117:130000000000000000000013000000000000000000000000
#0111b:000000000000000000001300000000000000000000000000000000000013000000000000000000000000000000000000
#01112:00000013
#0121b:130000000000000000000013000000000000000000130000
#01218:0013000000000000
#01215:00130000
#01212:0000001300130000
#01216:0013
#01217:000000000000001300000000
#01415:000000000000000000000000000000000013000000000000
#01418:00000013
#01412:000000000013000000000000000000000000000013000000
#0141b:000000130000000000000000000000000000000000000013
#01417:13130000
#01416:000013000000000000130013000000000000000000000000
#01515:000000000000000000000000000000000000000000000013
#01516:130000000000000033000013000000000000000000000000
#01512:000000000000000000001300000000000000000000000000000000000013000000000000000000000000000000000000
#0151b:000000001300000000130000
#01618:130000000013000000000013000000000000130000000000
#01612:000013000000000000000000000000000013000000000000
#01615:000000000000130000000013000013000000000000000013
#0161b:000000000000000013000000000000130000000000000000
#0161f:11
#0181b:130000000000000000000013000000000000130000000000
#01815:000013000013000000000000000000000013000000000000
#01818:000000130000000013000000000013000000000013000013
#01812:1300001300130000
#0191a:001200001200000000000000
#01916:000000120000000000120000000012000000000000000000
#01918:000000000012000000000012000000000012000000000000
#01914:00120000
#0191c:000000000000001200000000
#01912:000000000000000000000012000000000012000000000000
#02018:000013000000000000000000000000130000000000000000
#02015:000000130000000000130000130000000013130000000000
#0201b:000000000013000000130000130000000000000000000000
#02012:2300130000000013
#02017:23
#0201f:21
#02010:0041
#0211b:230000000000130000000000130000000013130000000000
#02115:001300000000000000000000
#02118:0013000000000000
#02112:000000000013000000130000000000130000000000000000
#02117:0000001300000013
#02116:0013
#02212:130000000000000000230000000000000000230000230023
#02214:0013000023000000
#02216:0000130000230000
#0221b:0013131313131300
#02218:000000000000000000000000000000000000000000230023
#03019:0000001300000000
#03012:0013000013000013
#0301b:230000000033000000000000000000130000130000000000
#03017:000033130000000000000000130000000000000000000000
#03016:13130000
#03014:0000001300000000
#03318:000000120012000000000000000000000000000000000000
#03316:0000001200005200
#0011c:12
#00114:000012000000000000120000000000000000000000000000
#00118:0012000000000000
#00116:000000000012000000000000120000000000000000000000
#0011a:00121200
#00117:00000012
#00212:12
#00218:000012000000000000120000000000000000000000000000
#00214:0012000012000000
#0021a:000000000012000000000000120000000000000000000000
#00216:00120000
#00217:00000012
#00515:000013000000000000130000000000000000000000000000
#0051b:2313001300001300
#00512:000000000013000000000000130000000000000000000000
#00518:00130000
#01312:130000000000000000000013000000000000000000130013
#01315:0013000000000000
#01318:00130000
#0131b:0000001300130000
#01317:0013
#01316:000000000000001300000000
#01310:41
#0171b:130000000000000000000000000000000013000000000000
#01715:000013000000000000000013000000000000130000000000
#01718:000000000013000013000013000013000000000000000000
#01712:0000130000130000
#0231b:000000000000000000000000000000000000000000000000000000000013000000000000000000000000000000000000
#02312:00000013
#02315:000000230023000000000000000000000000000000000000
#02318:000000000000000000230023000000000000000000000000
#02415:000013000000000000000000000000130000000000000000
#02418:000000130000000000130000130000000013130000000000
#02412:000000000013000000130000130000000000000000000000
#0241b:2300130000000013
#02416:23
#02512:230000000000130000000000130000000013130000000000
#02518:001300000000000000000000
#02515:0013000000000000
#0251b:000000000013000000130000000000130000000000000000
#02516:0000001300000013
#02517:0013
#02510:0041
#0261b:130000000000000000230000000000000000230000230023
#02619:0013000023000000
#02617:0000130000230000
#02612:0013131313131300
#02615:000000000000000000000000000000000000000000230023
#02817:000000000000000000000000000000000000000000000000000000000013000000000000000000000000000000000000
#02816:00000013
#02818:000000000000000000000000000000000000000000220022
#02812:000000230023000000000000000000000000000000220022
#0281b:000000000000000000230023000000000000000000000000
#02916:000000000000000000000000000000000000000000000000000000000012000000000000000000000000000000000000
#0291c:000000220022000000000000000000000000000000000000
#02912:000000000000000000220022000000000000000000000000
#02910:0041
#03114:0000001300000000
#0311b:0013000013000023
#03112:230000000033000000000000000000130000130000000000
#03116:000033130000000000000000130000000000000000000000
#03117:00130000
#03119:0000001300000000
#03219:0000001300230000
#03217:000033130000000000000000230000000000000000000000
#03212:0013000023000000
#03216:00130023
#03214:0000001300230000
#0321a:000000000000000000000000000000000000000000120012
#0321b:230000000033000000000000000000000000230000000000
#02712:000000000000000000000000000000000000000000000000000000000013000000000000000000000000000000000000
#0271b:000000000000000000000000000000000000130000230023
#02716:000000000000000000000000000000000000000000230023
#02718:000000230023000000000000000000000000000000000000
#02715:000000000000000000230023000000000000000000000000
#00054:0052
#00057:00000052
#0015a:0062
#00157:00000062
#00254:0052
#00257:00000052
#00455:00530000
#0045b:0053
#00452:0000005300005300
#00558:00630000
#0055b:0000006300006300
#00552:0063
#00655:00530000
#00652:0000005300000000
#00758:0053
#00856:0000000000530000
#0085b:0000000000530000
#00957:0000000000630000
#00952:0000000000630000
#01056:00630000
#01055:00000053
#01057:000000000000000000000013000000000000000000000000
#01052:000000000000000000000013000000000000000000000000
#01157:530000000000000000000053000000000000000000000000
#0115b:000000000000000000002300000000000000000000000000000000000023000000000000000000000000000000000000
#01252:0000000000530000
#0135b:0000000000630000
#01458:00000053
#01457:00530000
#01456:000000000000000000000013000000000000000000000000
#0145b:000000000000000000000013000000000000000000000000
#01452:000000000013
#01556:630000000000000000000063000000000000000000000000
#01552:000000000000000000002300000000000000000000000000000000000023000000000000000000000000000000000000
#01658:530000000000000000000053000000000000130000000000
#01655:00630000
#0175b:63
#01752:00530000
#01755:000000000000000000000063000000000000130000000000
#01855:000000000053000000000000000000000000000000000000
#01852:0000005300000000
#01958:000000000000000000000000000000000052000000000000
#01952:000000000000000000000000000000000052000000000000
#02052:0000130000000023
#0205b:0053
#02055:00000053
#02058:0000000000230000
#0215b:00130053
#02157:0000000000000023
#02152:0000000000230000
#02156:0053
#02252:00000013
#02258:000000000000000000000000000000000000000000000053
#0235b:000000000000000000000000000000000000000000000000000000000023000000000000000000000000000000000000
#02358:000000000000000000000053000000000000000000000000
#02355:000000000053000000000000000000000000000000000000
#0245b:0000130000000023
#02452:0063
#02455:0000000000230000
#02458:00000063
#02552:00130063
#02557:0063
#0255b:0000000000230000
#02556:0000000000000023
#0265b:00000013
#02655:000000000000000000000000000000000000000000000063
#02857:000000000000000000000000000000000000000000000000000000000023000000000000000000000000000000000000
#0285b:000000000000000000000053000000000000000000000000
#02852:000000000053000000000000000000000000000000000052
#02956:000000000000000000000000000000000000000000000000000000000022000000000000000000000000000000000000
#02952:000000000000000000000052000000000000000000000000
#0295c:000000000052000000000000000000000000000000000000
#03057:0053000000000000
#03052:0053
#0305b:53000053
#0315b:0063
#03152:53000063
#03156:0063000000000000
#03257:0053000000000000
#0325b:53000013
#03256:00000013
#02752:000000000000000000000000000000000000000000000000000000000023000000000000000000000000000000000000
#02758:000000000063000000000000000000000000000000000000
#02755:000000000000000000000063000000000000000000000000
#0275b:000000000000000000000000000000000000000000000053
#000340:0012
#000370:00000032
#001340:22
#0013a0:0012
#001370:00000032
#0023a0:22
#002340:0012
#002370:00000032
#003340:22
#003360:00001222
#0033c1:00001222
#004351:00132300
#004321:0000003300000000
#0043b0:0013
#004370:00000023
#004321:00000013
#005361:23
#005381:00132300
#0053b1:0000003300000000
#005320:0013
#005360:00000023
#0053b1:00000013
#006371:23
#006351:00132300
#006321:0000003300000000
#006351:00000013
#007351:23
#007381:0013
#0073b1:00000023
#0083b1:0000000000130000
#008371:0000000000000023
#008360:0000000000130000
#008320:0000000000000023
#009320:0000000000130000
#009360:0000000000000023
#009371:0000000000130000
#0093b1:0000000000000023
#010361:00130000
#010321:000000000000000000330023000000000000000000000000
#010351:00000013
#010321:000000000023
#011371:13
#0113b1:0023000000000000
#011360:000000130023000000000000000000000000000000000000
#0113b1:000000000013000000000000000000000000000000000000
#011371:0000002300000000
#011320:000000000000000000130023000000000000000000000000
#011371:000000000000000000000013000000000000230000000000
#0113b1:000000000000000000000000000000000000000000000000000000000053000000000000000000000000000000000000
#012321:0000000000130000
#012361:0000000000000023
#0133b1:0000000000130000
#013371:0000000000000023
#014371:00130000
#0143b1:000000000000000000330023000000000000000000000000
#014381:00000013
#0143b1:000000000023
#015361:13
#015321:0023000000000000
#015370:000000130023000000000000000000000000000000000000
#015321:000000000013000000000000000000000000000000000000
#015361:000000000000000033230000000000000000000000000000
#0153b0:000000000000000000130023000000000000000000000000
#015361:000000000000000000000013000000000000230000000000
#015321:000000000000000000000000000000000000000000000000000000000053000000000000000000000000000000000000
#016381:13
#0163b1:002300000000000000000000
#016351:00130000
#016321:002300
#016381:000000000000000000000013000000000000000000000000
#0163b1:000000000000002300000000
#0173b1:13
#017381:002300000000000000000000
#017321:00130000
#017351:002300
#017351:000000000000000000000013000000000000000000000000
#017321:000000000000002300000000
#018351:000000000013000000000000000000000000000000000000
#018321:002300
#018321:0000001300000000
#018351:000000000000000000000023000000000000000000000000
#018321:000000000000000000000000000000000000000000130023
#019321:000000000000000000000000000000000012000000000000
#019361:0000000000000022
#019380:000000000000000000000000000000000012000000000000
#0193c0:0000000000000022
#0203b0:00001323
#020380:0000000000530000
#020351:00000013
#020321:0000000000000053
#021351:23
#021361:00001323
#021321:0000000000530000
#0213b0:00000013
#021370:0000000000000053
#0223b0:23
#022380:000000000000000000000000000000000000000000000013
#0233b0:000000330023000000000000000000000000000000000000
#023351:000000000013000000000000000000000000000000000000
#023321:000000000000000000330023000000000000000000000000
#023380:000000000000000000000013000000000000230000000000
#0233b0:000000000000000000000000000000000000000000000000000000000053000000000000000000000000000000000000
#024320:00001323
#024350:0000000000530000
#024381:00000013
#0243b1:0000000000000053
#025381:23
#025371:00001323
#0253b1:0000000000530000
#025320:00000013
#025360:0000000000000053
#026320:23
#026350:000000000000000000000000000000000000000000000013
#027320:000000330023000000000000000000000000000000000000
#027381:000000000013000000000000000000000000000000000000
#0273b1:000000000000000000330023000000000000000000000000
#027350:000000000000000000000013000000000000230000000000
#027320:000000000000000000000000000000000000000000000000000000000053000000000000000000000000000000000000
#0273b0:000000000000000000000000000000000000000000000013
#028370:000000330023000000000000000000000000000000000000
#028321:000000000013000000000000000000000000000000000000
#028361:000000000000000000330023000000000000000000000000
#0283b0:000000000000000000000013000000000000230000000000
#028370:000000000000000000000000000000000000000000000000000000000053000000000000000000000000000000000000
#028320:000000000000000000000000000000000000000000000012
#029360:000000320022000000000000000000000000000000000000
#0293c1:000000000012000000000000000000000000000000000000
#029381:000000000000000000320022000000000000000000000000
#029320:000000000000000000000012000000000000220000000000
#029360:000000000000000000000000000000000000000000000000000000000052000000000000000000000000000000000000
#0303b0:130000000033230000000000000000000000000000000000
#030370:000033330000000000000000000000000000000000000000
#030320:0013
#030360:00000023
#0303b1:00000013
#031371:23
#031320:130000000033230000000000000000000000000000000000
#031360:000033330000000000000000000000000000000000000000
#0313b0:0013
#031370:00000023
#031321:00000013
#032361:23
#0323b0:130000000033230000000000000000000000000000000000
#032370:000033330000000000000000000000000000000000000000
#033360:000000000000000000000012000000000000220000000000
