This file was generated by Ched 2.7.0.0.
#TITLE ""
#ARTIST ""
#DESIGNER ""
#DIFFICULTY 0
#PLAYLEVEL
#SONGID ""
#WAVE ""
#WAVEOFFSET 0
#JACKET ""
#REQUEST "ticks_per_beat 480"
#00002: 4
#BPM01: 86
#00008: 01
#TIL00: ""
#VOLUME: ""
#HISPEED 00
#MEASUREHS 00
#00016:0000001200001200
#00012:120000000052520000000000120000000000000000000000
#0001c:000000000000000000000000120000000052000000000012
#0001a:120000120000120000000000000000000000005200000000
#00014:000052520000000000000000000000000000000000000000
#0001b:00000052
#00019:000000000052
#00018:0000000000000052
#00316:0000001200000000
#0031c:000000000000000000120000000000000052520000000000
#00318:120000000052520000000000120000000000000000000000
#00314:0012120000000000
#0031a:000052520000000000000000000052520000000000000000
#00418:000013000013000000000000000000000000120000000000
#00415:0013130000000000
#00416:000000000000000000140012000000000000000000120000
#00414:000000000000001200000000
#0041a:2400000000120000
#00412:240000000000000000130000000000000012000000000000
#0041c:0000000012000012
#00410:41
#0041b:0053530000000000
#0071a:240000000000000000140000000012000000000000000000
#00712:240000530000530000140000000000000012000000000000
#0071c:00001212
#00716:000000000000000000000000001200000000000012000012
#00714:0000000000120000
#00718:000000130000130000000000000000001200000000120000
#00715:000013000013000000000000000000000000000000000000
#02018:260013000000160000000000000000000000000000130000
#02012:230000160000130000130000000000000013130000000000
#0201b:0013000013000000
#02016:0000001414000000
#02015:000000000013000000000000000000000000000000000000
#0201f:21
#02010:0041
#0221b:1353535353535300
#02215:0013000000000000
#02214:00130000
#02218:000013000013000013000013000013000013000000000000
#02212:000000000000000000230000250000270000290000240024
#0221a:000000000000000000000000000000000000000000240024
#0331a:000000120012000000000000000000000000000000000000
#03318:0000001200005200
#03312:12
#03314:00120000
#03316:00000052
#02115:001300000000000000000000
#02118:260000160013000000000000000000000000000000000000
#02112:0013161313000013
#02116:0000001413000000
#0211b:00130000
#02117:000000000000000000000000000000000013130000000000
#01416:000014140000000014140000000014140000000000000000
#01412:000000000000000000131300
#0141a:000000000000000000000000000000000000000000000014
#01414:000000000000000000000000000000000000000000000014
#0011c:120000000052520000000000120000000000000000000000
#00114:000000120000120000000000000000000052000052000000
#00118:0000001200001200
#00116:000000000000000000000000000000000000000000000012
#00112:00001252
#0011a:000052520000000000000000000000000000000000000000
#00113:000000000000000000000000000000000000000000000000000000000000000000000052000052000000000000000000
#00115:0000000000000052
#00216:120000000052520000000000120000000000000000000000
#0021a:000000120000120000000000000000000000005200000000
#00212:0000001200001200
#0021c:0000000012000052
#00218:000000000000000000000000000000000052000000000012
#00214:000052520000000000000000000000000000000000000000
#00219:00000052
#0021b:000000000052
#00818:121200
#00812:00120000
#00814:000000000000000000120000000000000000000000000012
#0081a:000000000000000000000012000000000000000000120000
#00816:000000120012
#0081c:00000012
#00810:41
#00515:000013000013000000000000000000000000000000000000
#00518:000000130000130000000012000000000000000000120000
#00516:0000001400001200
#0051a:240000000000001200000000
#00514:0000000000120000
#0051c:000000000000000000000000000000000012000000000000
#00512:2453530012000012
#0051b:0000001300000000
#00618:000013000013000000000000000000240000000000000000
#00615:0013130000000000
#00616:000000000000000000140012000000000000240000120000
#00612:240000000000000000130000000000000012000000000000
#00614:000000000000001200000000
#0061c:0000000000000012
#0061a:2424
#0061b:0053530000000000
#00918:120000000000000000000012000000000000000012000000
#00912:00120000
#00916:000000000000000012000000120000000000000000000012
#00914:0000001200000000
#0091c:00000012
#0091a:0000000000000012
#01018:12120000
#01012:0012000000000000
#01014:000000000000000000120000000052520000000000120000
#0101a:000052520000000000120000000000000000000000120000
#01016:00001212
#0101c:0000000000120000
#0111c:12
#01116:120000000000000000000000000000000012000000120000
#01112:00121200
#01118:000000120000120000121200
#0111a:000052520000000000000000000052520000000000000000
#01114:000000000000000052520000000000000000000000000000
#01215:000000130000000000000013130000000000000000000000
#01218:000000000013000000130000000000130000000000000000
#01212:000000000000000000000000000013130000000000000000
#0121b:000000000000000000000000130000000000005200000000
#0121a:000000000000000000000000000000000052000052000000
#0121c:00000052
#01219:000000000000000000000000000000000000000000520052
#01318:000000130000000000000013130000000000000000000000
#01315:000000000013000000130000000000130000000000520052
#01312:00001352
#0131b:000000000000000000000000000013130000000000000013
#01310:41
#01314:000000000000000000000000000000000052000052000000
#01313:000000000000000000000000000000000000000000000000000000000000000000000052000052000000000000000000
#01616:000000000000000012000012000000000000120000120000
#01618:000000000000120000120000000000000000000012000012
#01612:1414000024240000
#0161a:2424000014140000
#0161f:11
#0151a:1400000000120000
#01512:000000140000120000001200
#0151c:000000000000000000000000001200000000120000000000
#01514:000000000000000000000000000000000000000000000000000000000000000000000000000000000000000000000074540000000000000000000000000000000000000000000000000000000000000000000000000000000000000000000000000000000000000000000000000000000000000000000000000000000000000000000000000000000000000000000000000000000000000000000000000000000000000000000000000000000000000000000000000000000000000000000000000000000000000000000000000000000000000000000000000000000000000012000000000000000000000000000000000000000000000000000000000000000000000000000000000000000000000000000000000000000000000000000000000000000000000000000000000000000000000000000000000000000000000000000000000000000000000000000000000000000000000000000000000000000000000000000000000000000000000000000000000000000000000000000000
#01516:000000000000000000000000000000000012000000000000
#01518:000000000000000000000000000000000000000000000000000000000000000000000000000000000000000000000000000000000000000000000000000000000000000000000000000000000000000000000000000000000000000000000000000000000000000000000000000000000000000000000000000000000000000000000000000000000000000000000074540000000000000000000000000000000000000000000000000000000000000000000000000000000000000000000000000000000000000000000000000000000000000000000000000000000000000000000000000000000000000000000000000000000000000000000000000000000000000000000000000000000000000000000000000000000000000000000000000000000000000000000000000000000000000000000000000000000000000000000000000000000000000000000000120000000000000000000000000000000000000000000000000000000000000000000000000000000000000000000000
#01718:260000260000000012000012000000000000000000000000
#0171a:0000121214140000
#01712:1414000026260000
#01716:000000000000000000000000000000000000000012000012
#01714:0000000000001212
#01812:140000000000000000000000000000120012000000000000
#01818:260012000000000000120012000000000000000000000000
#01816:000000120012000000000000000000000000120012000000
#0181a:000000121200000000000000
#0181c:000000000000121200000000
#01814:000000000000000000000000000000000000000000120012
#02316:001400240024000000000024000000000000000000000000
#02312:000000000000001400000000000000000000000000000000
#02314:000000000000000000000000000000000000000000000000000000000014000000000000000000000000130000000000
#02319:0000000000000013
#0231a:000000000024000000240024000000000000000000000000
#02415:000016000016000000000000000000000000000000130000
#0241b:230000130000130000130000000000000013130000000000
#02412:2613130013000000
#02416:0000001414000000
#02612:130000530000530000530000530000530000530000240024
#02618:0013000000000000
#02619:00132500
#02615:000013000013000013000013000013000013290000000000
#0261b:0000002300000000
#02617:0000000000270000
#0261a:000000000000000000000000000000000000000000240024
#02515:000016000016000000000000000000000000000000000000
#02512:2613130000000000
#0251b:0013131313000013
#02516:000000000000000000140000000000000013130000000000
#02517:0013
#02510:0041
#02716:001400240024000000000024000000000000000000000000
#0271a:000000000000001400000000000000000000000000240024
#02718:000000000000000000000000000000000000000000000000000000000014000000000000000000000000000000000000
#02712:000000000024000000240024000000000000000000240024
#02816:001400240000000000240000000000000000000000000000
#02815:000000000000001400000000000000000000000000000000
#02814:000000000000000000000000000000000000000000000000000000000014000000000000000000000000220000000000
#0281a:000000000024000000000024000000000000000000220000
#02818:000000000000000000000000000000000000000000000022
#0301b:130000530013000000130000000000000000000000000000
#03018:000013000000530000000052000000000000000000000000
#03012:2616160013000000
#03016:0000001400001300
#0301a:000000000000000000000000520052000000520000520000
#0301c:000000000000000000000000000000520052000000000000
#03115:001300530000000000000000
#03112:000000530013000000130000000000520052000000000000
#03118:2616160000000000
#03116:000000000000000000140052000000000000000000000000
#0311b:0013
#03117:00000013
#03114:000000000000000000000000520052000000520000520000
#0321b:001300530000000000230000
#03218:000000530013000000000000000000000000000000000000
#03212:230013000000530000000000230000250000270000000000
#03215:000000530013000000000000000000000000000000000000
#03214:0000001300000000
#03219:0000001300250000
#0321c:000000000000000000000000000000000000000000120012
#03217:0027
#01916:000000000000000000000000000000000012000012000000
#01918:0000000000001212
#01917:0052
#0291a:0022000000000000
#02917:000000000000000000220022000000000000520000000000
#02914:0022000000000000
#02916:000000000022000000000000000000000000000000000000
#02910:0041
#00052:0052
#00056:00000052
#02058:0000160000000023
#0205b:0053
#02052:13000053
#02056:00001413
#02152:0000160013000023
#02156:0053
#02157:00000053
#02158:16
#0215b:00000013
#02252:00000019
#0225a:000000000000000000000000000000000000000000000054
#0325b:00000013
#03252:00000017
#0015c:0062
#00158:00000062
#00256:0062
#00252:00000062
#00858:52
#00856:0062
#00958:52
#00956:0062
#01052:0022000000000000
#0105c:0000000000220000
#01156:0000000000000052
#01456:000000000014
#01452:000000000013
#0155a:54
#01552:00640000
#02354:000000000000000000000000000000000000000000000000000000000024000000000000000000000000000000000000
#02352:000000000000002400000000000000000000000000000000
#02356:002400000054000000000000000000000000000000000000
#0235a:000000000000000000000054000000000000000000000000
#02452:00136300
#02455:0000000000000023
#0245b:13000063
#02456:0014
#02457:00000013
#0255b:0000130013000023
#02557:0063
#02556:00000063
#02552:16000013
#02756:002400000064000000000000000000000000000000000000
#0275a:000000000000002400000000000000000000000000000054
#02758:000000000000000000000000000000000000000000000000000000000024000000000000000000000000000000000000
#02752:000000000000000000000064000000000000000000000000
#02655:00000019
#02652:000000000000000000000000000000000000000000000064
#02856:002400000000000000000000000000000000000000000000
#02855:000000000000002400000000000000000000000000000000
#0285a:000000000054000000000054000000000000000000000000
#02854:000000000000000000000000000000000000000000000000000000000024000000000000000000000000000000000000
#03052:0053
#03056:00000053
#0315b:0063
#03157:00000063
#000320:0012
#000360:00000032
#001320:22
#0013c0:0012
#001380:00000032
#0023c0:22
#002360:0012
#002320:00000032
#003360:22
#003320:00001222
#008380:12
#0083c0:00220000
#008360:0012
#008320:00000022
#009380:12
#0093c0:00220000
#009360:0012
#009320:00000022
#010320:0012000000000000
#010360:00220000
#0103c0:0000000000120000
#010380:00000022
#011360:0000000000000012
#012320:22
#0123b1:1323000000000000
#012321:0000132300000000
#013321:1323000000000000
#0133b1:0000132300000000
#0143b1:1323000000000000
#014321:0000132300000000
#0143b1:0000000013230000
#014361:000000000000000000142400
#0153a1:14
#015341:0024000000000000
#015340:140000000000000000000000000000000000000000000000000000000000000000000000000000000000000000000024000000000000000000000000000000000000000000000000000000000000000000000000000000000000000000000000000000000000000000000000000000000000000000000000000000000000000000000000000000000000000000000000000000000000000000000000000000000000000000000000000000000000000000000000000000000000000000000000000000000000000000000000000000000000000000000000000000000000000000000000000000000000000000000000000000000000000000000000000000000000000000000000000000000000000000000000000000000000000000000000000000000000000000000000000000000000000000000000000000000000000000000000000000000000000000000000000000000000000000000000000000000000000000000000000000000000000000000000000000000000000000000000
#015321:00140000
#015381:0000002400000000
#015380:000000000000000000000000000000000000000000000000000000000000000000000000000000000000000000000000000000000000000000000000000000000000000000000000000000000000000000000000000000000000000000000000140000000000000000000000000000000000000000000000000000000000000000000000000000000000000000000024000000000000000000000000000000000000000000000000000000000000000000000000000000000000000000000000000000000000000000000000000000000000000000000000000000000000000000000000000000000000000000000000000000000000000000000000000000000000000000000000000000000000000000000000000000000000000000000000000000000000000000000000000000000000000000000000000000000000000000000000000000000000000000000000000000000000000000000000000000000000000000000000000000000000000000000000000000000000000000000000
#019371:1222
#0203b1:0013
#020361:00000023
#020320:00000013
#020380:0000000000000053
#021320:23
#021360:0013
#0213b0:00000023
#021371:00000013
#021321:0000000000000053
#022371:23
#0223a1:000000000000000000000000000000000000000000000014
#023361:005400000000000000000000000000000000000000000000
#0233a1:0024000000000000
#023361:000000000014000000240000000000000000000000000000
#023321:000000000000005400000000000000000000000000000000
#0233a1:000000000000000000000014000000000000240000000000
#023341:000000000000000000000000000000000000000000000000000000000054000000000000000000000000000000000000
#024321:0013
#024371:00000023
#0243b0:00000013
#024350:0000000000000053
#0253b0:23
#025370:0013
#025320:00000023
#025361:00000013
#0253b1:0000000000000053
#026361:23
#026321:000000000000000000000000000000000000000000000014
#027361:005400000000000000000000000000000000000000000000
#027321:0024000000000000
#027361:000000000014000000240000000000000000000000000000
#0273a1:000000000000005400000000000000000000000000000000
#027321:000000000000000000000014000000000000240000000000
#027381:000000000000000000000000000000000000000000000000000000000054000000000000000000000000000000000000
#0273a1:000000000000000000000000000000000000000000000014
#028361:005400000000000000000000000000000000000000000000
#0283a1:0024000000000000
#028360:000000140024000000000000000000000000000000000000
#0283a1:000000000014000000240000000000000000000000000000
#028351:000000000000005400000000000000000000000000000000
#028360:000000000000000000140024000000000000000000000000
#0283a1:000000000000000000000014000000000000240000000000
#028341:000000000000000000000000000000000000000000000000000000000054000000000000000000000000000000000000
#029371:000000000000000000000012000000000000220000000000
#030321:0013
#030361:00000033
#031321:23
#0313b1:0013
#031371:00000033
#0323b1:23
#033381:000000000000000000000012000000000000220000000000
#033360:00001222
#000920:120000000052220000000000000000000000000000000000
#000940:000052520000000000000000000000000000000000000000
#0009c0:000000000000000000000000000000000012000000000000
#000980:0000000000000022
#0019c0:120000000052220000000000000000000000000000000000
#0019a0:000052520000000000000000000000000000000000000000
#001940:000000000000000000000000000000000012000000000000
#001920:00000052
#001950:0000000000000022
#002960:120000000052220000000000000000000000000000000000
#002940:000052520000000000000000000000000000000000000000
#002980:000000000000000000000000000000000012000000000000
#0029c0:0000000000000022
#003980:120000000052220000000000000000000000000000000000
#0039a0:000052520000000000000000000000000000000000000000
#003980:0012
#0039a0:000000000000000000000000000052520000000000000000
#0039c0:000000000000000000000000000000000052220000000000
#004980:001300000000000000000000
#0049b0:0023000000000000
#004980:000000000013000000000000000000000000000000000000
#0049b0:00230000
#005950:001300000000000000000000
#005920:0023000000000000
#005950:000000000013000000000000000000000000000000000000
#005920:00230000
#006980:001300000000000000000000
#0069b0:0023000000000000
#006980:000000000013000000000000000000000000000000000000
#0069b0:00230000
#007950:001300000000000000000000
#007920:0023000000000000
#007950:000000000013000000000000000000000000000000000000
#007920:00230000
#010980:12
#0109a0:000052220000000000000000000000000000000000000000
#010960:0012
#010940:000000000000000000000000000052220000000000000000
#0119c0:12
#0119a0:000052220000000000000000000000000000000000000000
#011920:00120000
#011940:000000000000000052220000000000000000000000000000
#011980:0012
#0119a0:000000000000000000000000000052220000000000000000
#0129a0:000000000000000000000000000000000012000000000000
#0129c0:00000052
#012990:000000000000000000000000000000000000000000520022
#013940:000000000000000000000000000000000012000000000000
#013920:00000052
#013950:000000000000000000000000000000000000000000520022
#022980:001300000000000000000000
#0229b0:0023000000000000
#022980:000000000013000000000000000000000000000000000000
#0229b0:00230000
#022980:001300
#0229b0:0000002300000000
#022980:000000000000000000000013000000000000000000000000
#0229b0:0023
#022980:000000000000001300000000
#0229b0:0000000000230000
#022980:000000000000000000000000000000000013000000000000
#0229b0:00000023
#026950:001300000000000000000000
#026920:0023000000000000
#026950:000000000013000000000000000000000000000000000000
#026920:00230000
#026950:001300
#026920:0000002300000000
#026950:000000000000000000000013000000000000000000000000
#026920:0023
#026950:000000000000001300000000
#026920:0000000000230000
#026950:000000000000000000000000000000000013000000000000
#026920:00000023
#030980:001300000000000000000000
#0309b0:0023000000000000
#0309b0:000000000013000000000000000000000000000000000000
#030980:00230000
#030980:000000000000000000000012000000000000000000000000
#0309a0:000000000000000000000000520052000000520000220000
#0309c0:000000000000000000000000000000520052000000000000
#031950:001300000000000000000000
#031920:0023000000000000
#031920:000000000013000000000000000000000000000000000000
#031950:00230000
#031960:000000000000000000000012000000000000000000000000
#031940:000000000000000000000000520052000000520000220000
#031920:000000000000000000000000000000520052000000000000
#0329b0:001300000000000000000000
#032980:0023000000000000
#032921:001300000000000000000000
#032951:0023000000000000
#032981:000000000013000000000000000000000000000000000000
#0329b1:00230000
#032950:000000000013000000000000000000000000000000000000
#032920:00230000
