This file was generated by Ched 2.7.0.0.
#TITLE ""
#ARTIST ""
#DESIGNER ""
#DIFFICULTY 0
#PLAYLEVEL
#SONGID ""
#WAVE ""
#WAVEOFFSET 0
#JACKET ""
#REQUEST "ticks_per_beat 480"
#00002: 4
#BPM01: 86
#00008: 01
#TIL00: ""
#VOLUME: ""
#HISPEED 00
#MEASUREHS 00
#0001a:1414
#00014:00140000
#00112:1414
#00118:00140000
#0021a:1414
#00214:00140000
#00312:14
#00318:00140000
#0041a:1414
#00414:00140014
#00410:41
#00518:1414
#00512:00140014
#0061a:1424
#00614:00140000
#00712:14
#00718:00140000
#0101a:14
#01014:00140000
#01018:0014
#01012:00000014
#0111a:14
#01118:00343400
#01412:14
#01418:00140000
#01414:0014
#0141a:00000014
#01512:14
#01514:00343400
#0161a:14140000
#01614:00001414
#0161f:11
#01718:14140000
#01712:00001414
#0181a:14
#01814:00140000
#01818:0014
#01812:00000014
#0191a:14
#01914:00140000
#01918:0014
#0201a:00140000
#02012:24
#0201f:21
#02010:0041
#02112:00140000
#0211a:24
#02212:14
#0221a:00140000
#02214:00001414
#02218:0000000000140000
#0231a:14000034
#02312:00140000
#02318:0014
#02412:00140000
#0241a:24
#0251a:00140000
#02512:24
#02510:0041
#0261a:14
#02612:00140000
#02618:00001414
#02614:0000000000140000
#02712:14
#0271a:00140000
#0281a:14
#02812:00140000
#02912:14
#0291a:00140000
#02910:0041
#0301a:1414
#03014:00140014
#03118:1414
#03112:00140014
#0321a:1424
#03214:00140000
#03314:1414
#03318:00140000
#00810:41
#01310:41
#0065a:00000014
#0115a:54
#01552:64
#02052:14
#0205a:00140000
#02152:00140000
#0215a:14
#02452:00140000
#0245a:14
#0255a:00140000
#02552:14
#02358:0054
#0325a:00000014
#003320:00001424
#0063a0:0000000014342400
#007320:00001424
#0083a0:1424
#008380:00340000
#009340:1424
#009320:00340000
#0113a0:14
#011380:00343424
#012320:1424
#012340:00340000
#013380:1424
#0133a0:00340000
#015320:14
#015340:00343424
#019320:00000014
#020320:24
#020340:00001424
#021380:00001424
#023380:0014
#0233a0:00000034
#0243a0:24
#024380:00001424
#025340:00001424
#027340:00001424
#028380:00001424
#029340:00001424
#0323a0:0000000014342400
